<?xml version="1.0" standalone="no"?>
<!DOCTYPE svg PUBLIC "-//W3C//DTD SVG 1.1//EN" "http://www.w3.org/Graphics/SVG/1.1/DTD/svg11.dtd">
<svg xmlns="http://www.w3.org/2000/svg">
<defs >
<font id="Lora" horiz-adv-x="616" ><font-face
    font-family="Lora"
    units-per-em="1000"
    panose-1="0 0 8 0 0 0 0 0 0 0"
    ascent="1006"
    descent="-274"
    alphabetic="0" />
<glyph unicode=" " glyph-name="space" horiz-adv-x="263" />
<glyph unicode="!" glyph-name="exclam" horiz-adv-x="258" d="M57 625Q54 660 73 688T129 716Q167 716 185 689T200 625L163 213H95L57 625ZM99 -16T78 7T56 62Q56 94 78 117T129 140Q160 140 180 117T201 62Q201 30 179 7T128 -16Q99 -16 78 7Z" />
<glyph unicode="&quot;" glyph-name="quotedbl" horiz-adv-x="326" d="M43 716H140L131 491H51L43 716ZM186 716H283L274 491H194L186 716Z" />
<glyph unicode="#" glyph-name="numbersign" horiz-adv-x="871" d="M203 154H37L58 243H221L271 440H103L124 529H290L334 716H435L392 529H565L609 716H709L667 529H834V528L814 440H648L601 243H768L747 154H583L543 -16H437L478 154H307L268 -16H162L203 154ZM496
243L546 440H373L325 243H496Z" />
<glyph unicode="$" glyph-name="dollar" horiz-adv-x="588" d="M262 -13Q192 -1 136 33H135L138 -9H61V225H126Q140 142 185 99T302 56Q354 56 383 84T413 156Q413 188 394 209T350 242T267 278Q166 320 108 377T50 525Q50 598 96 654T250 716V837H344L343 706Q391
693 424 668H425L421 709H499V476H433Q419 561 382 602T276 644Q233 644 207 620T180 558Q180 527 194 506T239 465T332 418Q396 390 440 362T515 290T546 186Q546 106 496 53T355 -13L354 -154H263L262 -13Z" />
<glyph unicode="%" glyph-name="percent" horiz-adv-x="904" d="M171 325T128 351T63 422T41 517Q41 566 64 612T130 687T232 716Q289 716 331 689T395 617T417 526Q417 473 392 427T324 353T230 325Q171 325 128 351ZM128 44L698 716L771 650L193 -17L128 44ZM264
405T279 437T295 511Q295 560 279 599T229 639Q195 639 180 605T164 532Q164 483 179 444T231 405Q264 405 279 437ZM618 -16T575 10T510 81T488 176Q488 225 511 271T577 346T679 375Q736 375 778 348T842 276T864 185Q864 133 839 87T771 12T677 -16Q618 -16
575 10ZM711 64T726 96T742 170Q742 219 726 258T676 298Q642 298 626 264T610 191Q610 142 625 103T678 64Q711 64 726 96Z" />
<glyph unicode="&amp;" glyph-name="ampersand" horiz-adv-x="670" d="M200 -16T146 4T57 66T23 170Q23 235 66 287T179 365Q129 419 113 461T97 551Q98 627 150 671T288 716Q339 716 378 695T440 637T462 559Q462 501 422 451T318 364Q324 356 376 305T479 205H480Q485
225 485 255Q485 295 472 312T432 331V395H600V320Q587 320 545 324V323Q556 298 556 262Q556 206 537 154L552 141Q641 66 675 66V0H568Q559 0 531 16T470 57Q430 22 377 3T261 -16Q200 -16 146 4ZM309 444T329 486T349 564Q349 601 331 623T283 646Q254 646 235
622T216 556Q216 526 232 487T273 417Q309 444 329 486ZM366 55T418 102L368 147Q274 233 208 308Q182 287 171 255T159 195Q159 128 194 92T293 55Q366 55 418 102Z" />
<glyph unicode="&apos;" glyph-name="quotesingle" horiz-adv-x="188" d="M42 716H146L137 491H52L42 716Z" />
<glyph unicode="(" glyph-name="parenleft" horiz-adv-x="296" d="M286 725Q239 662 211 569T171 386T159 239Q159 181 170 95T210 -82T286 -236L250 -271Q195 -221 144 -143T58 35T24 239Q24 343 58 445T144 629T249 760L286 725Z" />
<glyph unicode=")" glyph-name="parenright" horiz-adv-x="296" d="M10 -236Q57 -173 85 -80T125 103T137 250Q137 308 126 394T86 571T10 725L46 760Q101 710 152 632T238 454T272 250Q272 146 238 44T152 -140T47 -271L10 -236Z" />
<glyph unicode="*" glyph-name="asterisk" horiz-adv-x="533" d="M109 311T109 334Q109 354 130 385Q158 423 228 471Q142 471 98 484Q43 502 43 538Q43 547 46 556Q58 590 93 590Q109 590 130 583Q170 570 243 518Q215 601 215 645Q215 716 267 716Q319 716 319
645Q319 601 291 518Q362 569 402 583Q423 590 439 590Q476 590 487 556Q490 547 490 538Q490 518 475 505T436 484Q390 471 306 471Q378 419 403 385Q424 354 424 333Q424 311 403 296Q389 286 374 286Q346 286 319 323Q292 361 267 443Q239 357 214 324Q187 286
159 286Q144 286 130 296Q109 311 109 334Z" />
<glyph unicode="+" glyph-name="plus" horiz-adv-x="526" d="M212 271L40 270V365L212 364V543H311V364L486 363V271H311V82H212V271Z" />
<glyph unicode="," glyph-name="comma" horiz-adv-x="250" d="M77 -159Q97 -133 116 -87T134 -1Q125 -4 113 -4Q84 -4 64 12T44 62Q44 94 64 115T118 137Q161 137 184 108T208 32Q208 -17 185 -74T116 -187L77 -159Z" />
<glyph unicode="-" glyph-name="hyphen" horiz-adv-x="471" d="M51 368H419V263L51 260V368Z" />
<glyph unicode="." glyph-name="period" horiz-adv-x="233" d="M86 -16T65 6T44 62Q44 94 66 117T117 140Q148 140 168 117T189 62Q189 29 170 7T118 -16Q86 -16 65 6Z" />
<glyph unicode="/" glyph-name="slash" horiz-adv-x="699" d="M25 -220L583 755L674 697L103 -271L25 -220Z" />
<glyph unicode="0" glyph-name="zero" horiz-adv-x="636" d="M222 -16T161 37T71 173T43 347Q43 435 75 520T170 661T322 716Q413 716 474 662T563 525T592 352Q592 264 561 179T468 39T318 -16Q222 -16 161 37ZM389 55T414 130T440 331Q440 476 415 561T320 646Q253
646 224 570T195 368Q195 232 221 144T324 55Q389 55 414 130Z" />
<glyph unicode="1" glyph-name="one" horiz-adv-x="406" d="M80 66Q107 67 121 72T143 96T151 153V554L42 489L6 549L235 716H295V164Q295 100 292 74Q324 77 367 77V0H80V66Z" />
<glyph unicode="2" glyph-name="two" horiz-adv-x="533" d="M39 65T60 115T113 200T195 283Q266 349 297 404T329 515Q329 570 308 607T235 645Q209 645 187 633T152 603Q162 593 167 579T172 551Q172 529 155 508T106 487Q76 487 58 508T40 560Q40 592 66 628T142
690T258 716Q316 716 367 697T450 636T482 527Q482 491 464 454T398 365T262 242Q211 201 183 164T150 103L346 98Q383 96 402 110T421 163H485L477 0H39Q39 65 60 115Z" />
<glyph unicode="3" glyph-name="three" horiz-adv-x="560" d="M181 -16T132 5T59 60T35 131Q35 163 54 185T105 207Q137 207 152 187T168 143Q168 132 164 120T152 97Q162 79 187 68T242 57Q303 57 336 93T369 189Q369 250 335 293T221 335Q205 335 169 332V404Q180
403 198 403Q264 403 301 438T338 532Q338 585 316 615T245 646Q219 646 197 634T166 604Q174 594 178 580T182 555Q182 533 166 512T117 491Q86 491 69 511T51 563Q51 595 75 631T147 691T261 716Q362 716 422 674T483 539Q483 510 468 478T419 420T333 382V381Q425
364 472 314T520 196Q520 96 446 40T252 -16Q181 -16 132 5Z" />
<glyph unicode="4" glyph-name="four" horiz-adv-x="547" d="M202 66Q229 67 243 72T265 96T273 153V181H12V275L355 716H416V271H514V181H416V164Q416 97 412 74Q445 77 487 77V0H202V66ZM274 494H273L105 274L273 273L274 494Z" />
<glyph unicode="5" glyph-name="five" horiz-adv-x="540" d="M188 -16T141 4T69 56T44 121Q44 152 63 174T115 197Q147 197 161 177T176 133Q176 110 165 92Q171 76 195 66T243 55Q299 55 326 97T354 197Q354 370 234 370Q210 370 178 361T114 333L71 366L67 700H326Q365
700 383 713T402 765H465L458 603L144 597V419Q167 429 201 436T265 443Q345 443 399 413T481 331T508 218Q508 144 472 91T376 11T250 -16Q188 -16 141 4Z" />
<glyph unicode="6" glyph-name="six" horiz-adv-x="575" d="M158 -16T102 71T46 322Q46 398 70 488T155 647T320 716Q379 716 420 696T482 645T502 582Q502 553 485 532T439 511Q405 511 389 530T373 574Q373 584 376 596T387 618Q379 630 363 638T325 646Q256
646 225 569T191 390Q208 411 249 428T328 446Q430 446 481 384T532 215Q532 152 500 99T412 15T287 -16Q158 -16 102 71ZM340 54T360 92T381 190Q381 366 291 366Q260 366 233 347T191 300Q191 211 215 133T292 54Q340 54 360 92Z" />
<glyph unicode="7" glyph-name="seven" horiz-adv-x="469" d="M172 -16T158 1T144 42Q144 51 145 55Q148 78 165 125T234 294T364 599L154 601Q117 602 98 586T78 530H15L22 700H448V609Q392 495 360 392T284 111Q269 51 271 60Q263 28 246 6T201 -16Q172 -16 158 1Z" />
<glyph unicode="8" glyph-name="eight" horiz-adv-x="572" d="M230 -16T178 1T91 57T56 158Q56 211 95 261T188 343V344Q126 383 97 431T67 525Q67 587 101 630T187 694T294 716Q347 716 394 696T471 638T500 546Q500 499 465 456T381 383V382Q530 291 530 172Q530
80 459 32T283 -16Q230 -16 178 1ZM348 447T369 481T392 542Q394 590 368 618T302 646Q260 646 234 619T207 553Q207 515 238 479T316 423Q348 447 369 481ZM332 54T359 81T387 151Q387 192 357 232T257 307Q218 277 198 236T178 162Q178 116 208 85T286 54Q332
54 359 81Z" />
<glyph unicode="9" glyph-name="nine" horiz-adv-x="576" d="M162 -16T117 21T72 115Q72 144 90 166T138 189Q172 189 187 170T202 126Q202 117 198 104T188 83Q195 71 211 63T250 55Q321 55 355 129T384 311Q366 290 327 272T250 254Q148 254 96 318T43 487Q43
553 73 605T158 687T284 716Q411 716 470 625T529 378Q529 225 470 105T255 -16Q162 -16 117 21ZM316 334T343 353T384 400Q384 509 361 577T283 646Q240 646 217 606T194 510Q194 443 213 389T286 334Q316 334 343 353Z" />
<glyph unicode=":" glyph-name="colon" horiz-adv-x="248" d="M93 -16T72 6T51 62Q51 94 73 117T124 140Q155 140 175 117T196 62Q196 29 177 7T125 -16Q93 -16 72 6ZM93 387T72 409T51 465Q51 497 73 520T124 543Q155 543 175 520T196 465Q196 432 177 410T125
387Q93 387 72 409Z" />
<glyph unicode=";" glyph-name="semicolon" horiz-adv-x="267" d="M83 -159Q103 -133 122 -87T140 -1Q131 -4 119 -4Q90 -4 70 12T50 62Q50 94 70 115T124 137Q167 137 190 108T214 32Q214 -17 191 -74T122 -187L83 -159ZM107 387T86 409T65 465Q65 497 87 520T138
543Q169 543 189 520T210 465Q210 432 191 410T139 387Q107 387 86 409Z" />
<glyph unicode="&lt;" glyph-name="less" horiz-adv-x="551" d="M39 267V358L489 558V452L178 315V314L489 178V71L39 267Z" />
<glyph unicode="=" glyph-name="equal" horiz-adv-x="577" d="M63 452L514 451V358L63 356V452ZM63 267L514 265V172L63 170V267Z" />
<glyph unicode="&gt;" glyph-name="greater" horiz-adv-x="551" d="M512 362V271L62 71V177L373 314V315L62 451V558L512 362Z" />
<glyph unicode="?" glyph-name="question" horiz-adv-x="503" d="M201 181T176 198T150 250Q150 275 165 299T231 373Q272 413 292 449T312 537Q312 588 293 617T226 646Q203 646 182 637T150 614Q159 605 163 591T168 564Q168 542 152 520T105 497Q71 497 54
516T37 568Q37 604 64 638T139 694T245 716Q356 716 407 671T458 557Q458 501 423 458T324 365Q285 334 268 316T250 280Q250 266 260 258T290 250Q304 250 320 254L335 203Q312 191 286 186T237 181Q201 181 176 198ZM218 -16T197 7T175 62Q175 94 197 117T248
140Q279 140 299 117T320 62Q320 30 298 7T247 -16Q218 -16 197 7Z" />
<glyph unicode="@" glyph-name="at" horiz-adv-x="793" d="M290 -99T210 -51T88 78T47 256Q47 345 91 433T220 579T418 637Q521 637 595 591T708 471T746 312Q746 234 716 180T641 98T551 71Q509 71 480 94T451 177Q451 192 452 200Q427 136 393 106T323 76Q278
76 248 112T217 221Q217 288 244 348T323 447T447 485Q470 485 502 480T566 464L563 442Q534 225 534 178Q534 153 543 136T571 119Q607 119 630 150T663 226T673 312Q673 401 639 464T546 561T413 594Q330 594 265 548T163 425T126 262Q126 164 166 94T275 -13T427
-50Q491 -50 557 -23T669 55L691 28Q636 -35 562 -67T404 -99Q290 -99 210 -51ZM374 145T399 192T442 307T462 432Q447 437 425 435Q392 432 368 399T330 316T316 218Q316 183 325 164T350 145Q374 145 399 192Z" />
<glyph unicode="A" glyph-name="A" horiz-adv-x="668" d="M4 69Q30 69 47 84T75 120T100 183L295 718H365L578 173Q586 153 595 124T606 74Q639 77 664 77V0H395V66Q443 66 443 106Q443 126 432 154L412 209L195 205L179 158Q176 150 166 122T147 77Q179 80 218
80V0H4V69ZM387 280L341 405Q312 487 303 542H302Q286 470 265 410L220 280H387Z" />
<glyph unicode="B" glyph-name="B" horiz-adv-x="661" d="M50 66Q77 67 91 72T113 96T121 153V536Q121 592 125 626L50 623V700L327 702Q447 703 515 659T583 530Q583 481 547 440T439 379V378Q535 363 584 314T633 199Q633 104 566 52T390 0H50V66ZM318 394Q377
395 403 431T430 528Q430 582 400 607T327 632Q306 632 294 627T274 604T266 548V393L318 394ZM328 71T359 72Q418 75 447 109T476 202Q476 266 439 294T347 323Q292 323 266 322V159Q266 105 262 71Q328 71 359 72Z" />
<glyph unicode="C" glyph-name="C" horiz-adv-x="688" d="M277 -16T199 31T78 159T35 340Q35 435 75 521T195 662T385 716Q425 716 471 703T557 667H558L554 709H631V476H566Q539 642 398 644Q331 644 285 605T215 500T192 360Q192 274 217 207T289 103T402 65Q466
65 527 98T631 188L679 144Q613 53 534 19T378 -16Q277 -16 199 31Z" />
<glyph unicode="D" glyph-name="D" horiz-adv-x="759" d="M50 66Q77 67 91 72T113 96T121 153V536Q121 592 125 626L50 623V700L341 701Q466 701 552 652T681 523T724 357Q724 269 684 188T556 53T336 0H50V66ZM427 73T474 110T543 206T566 336Q566 488 504 561T329
634Q295 634 281 617T266 549V164Q266 108 262 74Q267 75 281 75L324 74Q337 73 357 73Q427 73 474 110Z" />
<glyph unicode="E" glyph-name="E" horiz-adv-x="624" d="M50 66Q77 67 91 72T113 96T121 153V536Q121 592 125 626L50 623V700H550L556 506H490Q490 580 455 608T369 635L333 634Q309 633 295 628T274 603T266 547V397H383Q382 414 379 484H456V241H390Q390 281
378 300T345 324T292 329L266 328V164Q266 110 262 76H396Q447 76 482 110T518 220H583L578 0H50V66Z" />
<glyph unicode="F" glyph-name="F" horiz-adv-x="571" d="M50 66Q77 67 91 72T113 96T121 153V536Q121 592 125 626L50 623V700H550L556 506H490Q490 580 455 608T369 635L333 634Q309 633 295 628T274 603T266 547V373H369Q368 386 365 459H442V216H376Q376 256
364 275T331 300T278 304H266V164Q266 108 262 74Q294 77 351 77V0H50V66Z" />
<glyph unicode="G" glyph-name="G" horiz-adv-x="754" d="M270 -16T194 31T77 158T36 340Q36 435 75 521T193 662T383 716Q426 716 480 703T573 667H574L570 709H647V476H582Q569 557 519 600T396 644Q330 644 284 605T215 500T192 360Q192 227 247 145T401 63Q433
63 474 70T542 90V183Q542 239 546 273Q520 271 497 271L471 270V347H737V281Q712 280 698 274T677 250T670 194V34H646Q623 34 601 29T543 13Q491 -2 456 -9T376 -16Q270 -16 194 31Z" />
<glyph unicode="H" glyph-name="H" horiz-adv-x="807" d="M50 66Q77 67 91 72T113 96T121 153V536Q121 592 125 626L50 623V700H337V634Q310 633 296 628T274 604T266 547V391H541V536Q541 603 545 626L470 623V700H757V634Q730 633 716 628T694 604T686 547V164Q686
108 682 74Q714 77 757 77V0H470V66Q497 67 511 72T533 96T541 153V315L266 312V164Q266 108 262 74Q294 77 337 77V0H50V66Z" />
<glyph unicode="I" glyph-name="I" horiz-adv-x="387" d="M50 66Q77 67 91 72T113 96T121 153V536Q121 592 125 626L50 623V700H337V634Q310 633 296 628T274 604T266 547V164Q266 108 262 74Q294 77 337 77V0H50V66Z" />
<glyph unicode="J" glyph-name="J" horiz-adv-x="451" d="M84 -16T43 14T1 91Q1 126 21 150T76 174Q108 174 124 155T142 109Q143 93 133 72Q137 63 146 60T164 56Q208 56 208 135V536Q208 603 212 626L137 623V700H424V634Q397 633 383 628T361 604T353 547V254Q353
113 301 49T144 -16Q84 -16 43 14Z" />
<glyph unicode="K" glyph-name="K" horiz-adv-x="712" d="M50 66Q77 67 91 72T113 96T121 153V536Q121 592 125 626L50 623V700H337V634Q310 633 296 628T274 604T266 547V395H338L415 526Q463 610 483 626V627Q461 625 445 625T420 623V700H665V634Q622 632 585
612T510 532L414 378V377Q452 354 477 319L580 174Q654 69 711 66V0H557Q546 1 514 35T459 102L360 246Q346 266 330 286T302 315H266V164Q266 108 262 74Q294 77 337 77V0H50V66Z" />
<glyph unicode="L" glyph-name="L" horiz-adv-x="604" d="M50 66Q77 67 91 72T113 96T121 153V536Q121 592 125 626L50 623V700H337V634Q310 633 296 628T274 604T266 547V164Q266 110 262 76H396Q456 77 489 118T522 240H589L583 0H50V66Z" />
<glyph unicode="M" glyph-name="M" horiz-adv-x="972" d="M273 319Q258 354 238 417T203 545H202Q205 454 205 379V345L204 164Q204 102 199 74Q232 77 275 77V0H47V66Q74 67 88 72T110 96T118 153L124 536Q126 609 128 626L53 623V700H274L425 313Q440 274 457
227T481 155H482Q486 165 504 217Q518 258 529 287L684 700H915V634Q888 633 873 628T850 604T843 547L858 164Q861 113 854 74Q887 77 930 77V0H652V66Q679 67 693 72T716 96T723 153L715 365L713 403Q708 500 707 538H706L501 -10H408L273 319Z" />
<glyph unicode="N" glyph-name="N" horiz-adv-x="773" d="M262 399Q237 431 207 474H206L208 164Q208 108 204 74Q236 77 279 77V0H51V66Q78 67 92 72T114 96T122 153L120 536Q120 603 124 626L48 623V700H205L511 314Q553 259 581 219H582V536Q582 601 585 626L510
623V700H738V634Q711 633 697 628T675 604T667 547V-10H582L262 399Z" />
<glyph unicode="O" glyph-name="O" horiz-adv-x="769" d="M263 -16T185 37T71 173T35 350Q35 439 75 523T194 661T386 716Q501 716 579 662T696 523T734 350Q734 263 694 179T575 39T383 -16Q263 -16 185 37ZM458 57T499 98T558 202T576 333Q576 475 526 559T378
643Q312 643 270 601T210 495T192 362Q192 292 212 222T277 105T393 57Q458 57 499 98Z" />
<glyph unicode="P" glyph-name="P" horiz-adv-x="639" d="M50 66Q77 67 91 72T113 96T121 153V536Q121 592 125 626L50 623V700L334 702Q469 703 545 649T622 483Q622 426 590 374T494 289T338 253L299 252L266 253V165Q266 108 262 74Q294 77 347 77V0H50V66ZM392
325T429 365T467 484Q467 632 333 632Q298 632 282 617T266 553V328Q287 325 311 325Q392 325 429 365Z" />
<glyph unicode="Q" glyph-name="Q" horiz-adv-x="770" d="M701 -218T676 -215T629 -200T579 -164Q555 -143 516 -102Q472 -56 443 -36T374 -16Q258 -16 182 37T71 174T36 350Q36 439 76 523T195 661T387 716Q502 716 580 662T696 523T734 350Q734 281 709 213T632
89T509 6V5Q556 5 586 -5T653 -51L698 -94Q738 -132 753 -141T794 -151V-218H751Q701 -218 676 -215ZM458 57T499 98T558 202T577 333Q577 475 527 559T379 643Q312 643 271 601T211 495T193 362Q193 292 213 222T278 105T393 57Q458 57 499 98Z" />
<glyph unicode="R" glyph-name="R" horiz-adv-x="686" d="M50 66Q77 67 91 72T113 96T121 153V536Q121 592 125 626L50 623V700L334 702Q471 703 545 654T620 495Q620 426 576 373T444 294V293Q462 286 481 269T513 230L560 160Q594 107 616 87T672 66V0H507Q490
12 473 34T434 94L360 214Q335 254 318 272H266V165Q266 108 262 74Q294 77 347 77V0H50V66ZM396 344T432 380T469 495Q469 578 427 605T333 632Q298 632 282 617T266 553V348Q296 344 314 344Q396 344 432 380Z" />
<glyph unicode="S" glyph-name="S" horiz-adv-x="598" d="M266 -16T220 -3T134 33H133L136 -9H59V225H125Q138 143 188 100T310 56Q362 56 396 83T430 150Q430 182 408 205T358 241T270 278Q160 322 102 378T43 525Q43 571 66 614T141 687T277 716Q320 716 367
704T445 668H446L442 709H520V476H454Q441 558 397 601T283 644Q238 644 206 620T173 558Q173 514 210 484T335 418Q436 378 499 326T563 186Q563 127 531 81T441 10T307 -16Q266 -16 220 -3Z" />
<glyph unicode="T" glyph-name="T" horiz-adv-x="650" d="M180 66Q207 67 221 72T243 96T251 153V632H205Q146 631 114 592T82 474H16L21 700H627L633 474H567Q567 553 535 593T444 633H396V164Q396 97 392 74Q425 77 472 77V0H180V66Z" />
<glyph unicode="U" glyph-name="U" horiz-adv-x="760" d="M228 -16T163 67T97 294V536Q97 592 101 626L26 623V700H313V634Q287 633 273 628T250 604T242 547V272Q242 60 410 60Q489 60 532 114T576 274V536Q576 603 580 626L504 623V700H736V634Q709 633 695
628T673 604T665 547V297Q665 133 590 59T385 -16Q228 -16 163 67Z" />
<glyph unicode="V" glyph-name="V" horiz-adv-x="708" d="M90 531Q62 597 62 626L8 623V700H303V634Q237 636 237 592Q237 576 245 557L337 331Q349 303 367 257Q373 241 394 188H395L443 326L519 535Q541 604 560 626V627L508 624L483 623V700H708V634Q673 632
648 608T602 527L402 -6H320L90 531Z" />
<glyph unicode="W" glyph-name="W" horiz-adv-x="1016" d="M95 533Q66 601 66 626L13 623V700H308V634Q276 635 260 626T243 592Q243 579 249 559L309 331Q311 323 321 285T342 189H343L400 394L493 700H583L697 332Q711 286 733 188H734L772 326L828 535Q844
598 869 626V627L817 624L792 623V700H1017V634Q982 632 956 608T911 527L748 -6H659L541 352Q525 399 509 475Q508 484 504 500H503Q493 435 474 369L360 -6H273L95 533Z" />
<glyph unicode="X" glyph-name="X" horiz-adv-x="699" d="M35 66Q63 73 92 98T159 173L275 328L114 532Q83 572 64 626L14 623V700H318V634Q256 634 256 606Q256 590 275 566L363 453H364L440 558Q473 603 499 626V627L449 624L424 623V700H651V634Q617 630 584
603T510 521L414 390L602 150Q641 102 654 74Q687 77 695 77V0H396V66Q452 66 452 90Q452 104 429 134L328 263H327L239 142Q203 93 184 74V73Q228 77 255 77V0H35V66Z" />
<glyph unicode="Y" glyph-name="Y" horiz-adv-x="667" d="M203 66Q230 67 244 72T266 96T274 153V240L90 531Q75 556 64 583T52 626L3 623V700H298V634Q266 636 247 626T227 595Q227 577 239 557L315 432Q318 427 337 393T366 335H367Q370 342 374 350T383 370Q408
420 414 433L466 535Q497 601 519 626V627L467 624L442 623V700H663V634Q628 629 603 606T549 527L419 277V164Q419 108 415 74Q448 77 495 77V0H203V66Z" />
<glyph unicode="Z" glyph-name="Z" horiz-adv-x="604" d="M40 75L339 531Q383 598 409 629V630L238 635Q179 637 145 601T111 487H45L51 700H560V625L272 189Q219 110 186 71V70L369 66Q428 65 461 100T495 214H561L555 0H40V75Z" />
<glyph unicode="[" glyph-name="bracketleft" horiz-adv-x="386" d="M63 755H383V684L192 681L188 -181L385 -184V-255H62L63 755Z" />
<glyph unicode="\" glyph-name="backslash" horiz-adv-x="699" d="M674 -220L116 755L25 697L596 -271L674 -220Z" />
<glyph unicode="]" glyph-name="bracketright" horiz-adv-x="386" d="M323 -255H3V-184L194 -181L198 681L1 684V755H324L323 -255Z" />
<glyph unicode="^" glyph-name="asciicircum" horiz-adv-x="823" d="M409 643H408L191 441H60L368 716H457L763 437H626L409 643Z" />
<glyph unicode="_" glyph-name="underscore" horiz-adv-x="832" d="M108 -50L723 -54V-155H108V-50Z" />
<glyph unicode="`" glyph-name="grave" horiz-adv-x="282" d="M71 671Q59 683 52 698T44 728Q44 752 63 770Q78 782 97 782Q114 782 130 772T156 746L238 606L192 565L71 671Z" />
<glyph unicode="a" glyph-name="a" horiz-adv-x="524" d="M103 -16T67 21T30 117Q30 205 112 250T309 301V353Q309 444 241 444Q197 444 169 416Q181 402 181 378Q181 354 165 335T116 316Q86 316 69 335T52 384Q52 423 80 453T156 499T263 516Q448 516 448 325L447
161Q447 113 443 73Q476 76 508 76V0H319Q317 13 315 46H314Q253 -16 166 -16Q103 -16 67 21ZM274 82T308 118V230Q249 224 211 200T172 135Q172 108 188 95T229 82Q274 82 308 118Z" />
<glyph unicode="b" glyph-name="b" horiz-adv-x="573" d="M263 -16T224 -3T153 44H152L123 0H63V565Q63 623 66 652L-4 649V725Q59 725 98 734T150 755H204V462Q265 516 339 516Q399 516 444 485T515 397T541 263Q541 182 512 119T427 20T298 -16Q263 -16 224
-3ZM341 57T367 111T394 248Q394 322 368 374T288 426Q263 426 241 415T204 383V150Q204 101 226 79T281 57Q341 57 367 111Z" />
<glyph unicode="c" glyph-name="c" horiz-adv-x="518" d="M209 -16T153 14T64 102T31 239Q31 314 64 377T156 478T291 516Q352 516 395 497T461 447T483 379Q483 348 465 326T414 304Q381 304 365 324T348 369Q348 392 360 413Q351 431 331 438T291 446Q240 446
209 400T177 268Q177 183 210 128T314 73Q354 73 393 94T459 150L505 105Q455 36 398 10T277 -16Q209 -16 153 14Z" />
<glyph unicode="d" glyph-name="d" horiz-adv-x="596" d="M174 -16T129 15T58 103T32 237Q32 317 63 380T150 480T280 516Q319 516 369 498V564Q369 612 373 652Q340 649 302 649V725Q365 725 404 734T456 755H510V161Q510 113 506 73Q539 76 571 76V0H381L376
46H375Q316 -16 234 -16Q174 -16 129 15ZM311 75T333 88T369 123V423Q358 431 338 436T298 442Q234 441 207 387T179 252Q179 180 205 128T286 75Q311 75 333 88Z" />
<glyph unicode="e" glyph-name="e" horiz-adv-x="538" d="M205 -16T149 16T62 109T31 249Q31 319 62 380T151 479T281 516Q378 516 442 459T506 269L178 263Q178 175 211 124T319 73Q354 73 394 91T466 148L511 106Q426 -16 278 -16Q205 -16 149 16ZM368 333Q365
446 286 446Q243 446 218 416T184 333H368Z" />
<glyph unicode="f" glyph-name="f" horiz-adv-x="369" d="M43 65Q81 65 92 86T103 154V418L30 417V500H103V529Q103 646 154 700T299 755Q364 755 395 729T426 667Q426 639 409 620T362 600Q334 600 319 616T303 657Q303 670 305 677Q297 685 282 685Q242 684
242 623V500H354V423L243 420L244 163Q244 113 240 73Q273 76 310 76V0H43V65Z" />
<glyph unicode="g" glyph-name="g" horiz-adv-x="557" d="M135 -271T82 -234T28 -140Q28 -105 50 -75T123 -25Q84 -14 67 9T49 63Q49 93 72 124T146 170V171Q101 189 75 227T48 319Q48 375 79 420T162 490T271 516Q301 516 334 509T390 485Q409 537 441 571T517
606Q550 606 568 589T586 542Q586 519 572 500T526 481Q510 481 495 492T476 520Q463 516 450 495T435 455Q463 430 478 397T494 326Q494 270 462 225T378 154T267 128L239 129Q217 131 207 131Q185 131 170 123T155 101Q155 83 182 76T283 64Q409 57 474 22T539
-95Q539 -149 498 -189T391 -250T256 -271Q135 -271 82 -234ZM309 195T331 229T354 308Q354 365 332 407T270 449Q232 449 209 414T186 331Q186 275 209 235T271 195Q309 195 331 229ZM330 -202T362 -190T412 -160T429 -122Q429 -91 394 -75T285 -56Q277 -55 259
-55Q249 -54 224 -53T183 -48Q168 -60 160 -79T151 -117Q151 -156 187 -179T285 -202Q330 -202 362 -190Z" />
<glyph unicode="h" glyph-name="h" horiz-adv-x="621" d="M25 65Q52 65 64 75T80 104T84 154V565Q84 613 88 652L18 649V725Q81 725 120 734T172 755H226V460Q255 483 298 499T372 516Q462 516 501 464T541 295V161Q541 113 537 73Q569 76 602 76V0H339V65Q377
65 388 86T399 154L398 296Q398 362 379 393T317 424Q293 424 268 414T226 387V161Q226 113 222 73Q255 76 287 76V0H25V65Z" />
<glyph unicode="i" glyph-name="i" horiz-adv-x="327" d="M148 599T126 622T104 680Q104 714 127 738T181 763Q213 763 234 739T256 680Q256 645 236 622T182 599Q148 599 126 622ZM41 65Q79 65 89 86T100 154V320Q100 367 104 407L34 404V480Q97 480 136 489T188
510H242V161Q242 113 238 73Q270 76 303 76V0H41V65Z" />
<glyph unicode="j" glyph-name="j" horiz-adv-x="294" d="M133 599T111 622T89 680Q89 714 112 738T166 763Q198 763 219 739T241 680Q241 645 221 622T167 599Q133 599 111 622ZM-32 -271T-60 -247T-88 -189Q-88 -161 -71 -141T-23 -121Q3 -121 19 -137T36 -180Q36
-185 34 -197Q37 -199 42 -200T51 -201Q93 -201 93 -126L90 320Q90 367 94 407L24 404V480Q87 480 126 489T178 510H232V2Q232 -132 174 -201T21 -271Q-32 -271 -60 -247Z" />
<glyph unicode="k" glyph-name="k" horiz-adv-x="594" d="M25 65Q63 65 74 86T85 154V565Q85 613 89 652L19 649V725Q82 725 121 734T172 755H227V299H275L347 382Q378 417 386 424V425L333 424V500H558V436Q510 431 477 410T416 357L352 286V285Q368 277 382
264T417 223L484 135Q510 103 530 84T576 65V0H461Q431 0 408 20T350 87Q312 138 277 191L250 229L227 228V161Q227 113 223 73Q255 76 288 76V0H25V65Z" />
<glyph unicode="l" glyph-name="l" horiz-adv-x="312" d="M25 65Q52 65 64 75T80 104T84 154V565Q84 613 88 652L18 649V725Q81 725 120 734T172 755H226V161Q226 113 222 73Q255 76 287 76V0H25V65Z" />
<glyph unicode="m" glyph-name="m" horiz-adv-x="920" d="M41 65Q79 65 89 86T100 154V322Q100 367 104 407L34 404V480Q97 480 136 489T188 510H237Q237 508 241 460H243Q274 485 313 500T389 516Q434 516 464 500T513 450Q549 480 593 498T676 516Q759 516 799
468T840 308V161Q840 113 836 73Q868 76 901 76V0H648V65Q680 65 689 86T698 154V307Q697 370 677 396T619 423Q575 423 533 390Q542 350 542 295V161Q542 113 538 73Q570 76 603 76V0H345V65Q380 65 390 86T400 154L399 310Q399 372 381 397T327 424Q283 424 242
387V161Q242 113 238 73Q270 76 298 76V0H41V65Z" />
<glyph unicode="n" glyph-name="n" horiz-adv-x="636" d="M41 65Q79 65 89 86T100 154V322Q100 367 104 407L34 404V480Q97 480 136 489T188 510H237Q237 508 241 460H243Q272 483 314 499T387 516Q478 516 517 464T556 295V161Q556 113 552 73Q585 76 617 76V0H355V65Q393
65 404 86T415 154L414 296Q414 362 396 393T333 424Q309 424 284 414T242 387V161Q242 113 238 73Q270 76 303 76V0H41V65Z" />
<glyph unicode="o" glyph-name="o" horiz-adv-x="566" d="M213 -16T155 15T64 104T31 239Q31 320 65 383T156 481T283 516Q355 516 412 485T502 396T535 259Q535 176 504 114T416 18T286 -16Q213 -16 155 15ZM343 55T365 106T387 234Q387 320 362 383T283 446Q228
446 203 394T178 266Q178 179 205 117T288 55Q343 55 365 106Z" />
<glyph unicode="p" glyph-name="p" horiz-adv-x="601" d="M31 -190Q69 -190 80 -169T91 -101V322Q91 367 95 407L24 404V480Q87 480 126 489T178 510H227Q229 493 232 462H233Q295 516 367 516Q427 516 472 485T543 397T569 263Q569 183 538 120T451 20T321 -16Q282
-16 232 2V-94Q232 -137 229 -182Q260 -179 293 -179V-255H31V-190ZM422 59T422 248Q422 322 396 374T316 426Q291 426 269 414T232 382V77Q242 70 261 65T301 59Q422 59 422 248Z" />
<glyph unicode="q" glyph-name="q" horiz-adv-x="573" d="M310 -190Q348 -190 358 -169T369 -101L370 40H369Q312 -16 234 -16Q174 -16 129 15T58 103T32 237Q32 317 63 380T151 480T282 516Q312 516 335 512T386 501Q412 494 422 494Q430 494 440 498T457 510H511V-94Q511
-142 507 -182Q539 -179 572 -179V-255H310V-190ZM311 74T333 87T369 121V355Q369 405 347 424T292 443Q233 442 206 391T179 262Q179 186 205 130T286 74Q311 74 333 87Z" />
<glyph unicode="r" glyph-name="r" horiz-adv-x="480" d="M41 65Q79 65 89 86T100 154V322Q100 367 104 407L34 404V480Q97 480 136 489T188 510H237Q239 495 240 471T241 424H243Q311 516 387 516Q425 516 449 495T474 433Q474 407 457 385T406 363Q381 363 362
376T339 421Q311 421 282 389T242 324V161Q242 113 238 73Q270 76 303 76V0H41V65Z" />
<glyph unicode="s" glyph-name="s" horiz-adv-x="485" d="M228 -16T187 -5T123 23H122L125 -7H49L45 165H110Q115 119 158 88T265 56Q293 56 313 69T334 106Q334 124 321 136T290 156T218 185Q154 210 122 226T65 273T39 355Q39 396 59 432T122 492T227 516Q256
516 290 507T347 482H348L347 511H423V334H358Q349 386 312 416T221 446Q193 446 174 433T155 393Q155 365 177 352T251 321Q257 320 277 313Q362 283 407 243T453 138Q453 88 428 54T361 2T271 -16Q228 -16 187 -5Z" />
<glyph unicode="t" glyph-name="t" horiz-adv-x="413" d="M83 -16T83 176L85 417H17V500Q49 500 77 520T126 569T154 625H228L227 500H354V423L227 420L226 174Q226 77 286 77Q334 77 377 137L425 92Q378 23 331 4T239 -16Q83 -16 83 176Z" />
<glyph unicode="u" glyph-name="u" horiz-adv-x="618" d="M159 -16T121 36T82 205V320Q82 362 85 407L15 404V480Q78 480 117 489T169 510H224V204Q224 138 241 107T295 76Q320 76 346 90T391 124V320Q391 367 395 407L325 404V480Q388 480 426 489T478 510H533V161Q533
113 529 73Q561 76 594 76V0H404L398 52H397Q360 20 326 2T248 -16Q159 -16 121 36Z" />
<glyph unicode="v" glyph-name="v" horiz-adv-x="538" d="M69 344Q57 371 53 385T46 409T43 426L6 424V500H240V436Q206 435 206 403Q206 385 216 358L300 151H301L374 357Q388 395 407 427V428L345 424V500H535V436Q504 431 483 397T442 316L314 -3H227L69 344Z" />
<glyph unicode="w" glyph-name="w" horiz-adv-x="811" d="M72 344Q61 375 56 391T47 426L8 424V500H248V436Q209 435 209 394Q209 384 215 358L249 236Q263 185 270 141H271Q273 149 279 179T297 249L370 500H479L559 224Q566 199 583 134H584Q588 163 607 221L646
348Q653 372 660 391T675 427V428L618 424V500H808V436Q755 436 718 328L604 -3H498L429 210Q413 260 394 333H393Q382 273 347 162L292 -3H193L72 344Z" />
<glyph unicode="x" glyph-name="x" horiz-adv-x="548" d="M40 64Q59 72 76 87T116 129L203 229L105 344Q102 347 79 376T48 426L21 424V500H242V436Q218 435 218 420Q218 405 239 381L285 327H286L324 373Q328 377 343 395T373 427V428L324 424V500H500V436Q444
412 400 356L333 274L449 139Q484 98 497 74L531 76V0H295V64Q329 65 329 82Q329 94 312 113L252 176H251L205 120Q197 110 183 94T160 73V72L206 76V0H40V64Z" />
<glyph unicode="y" glyph-name="y" horiz-adv-x="551" d="M109 -271T83 -248T57 -189Q57 -161 75 -141T122 -120Q144 -120 158 -135T173 -176Q173 -184 172 -189V-190Q191 -190 214 -142T257 -26L99 291Q73 341 64 369T51 426L5 424V500H254V436Q212 431 212 397Q212
380 222 358L320 134H321L342 201Q353 239 384 333Q406 403 426 427V428L369 424V500H547V436Q518 429 497 400T459 322L334 -35Q304 -124 279 -173T224 -246T148 -271Q109 -271 83 -248Z" />
<glyph unicode="z" glyph-name="z" horiz-adv-x="514" d="M35 72L265 375Q290 408 316 434V435L181 433Q149 432 132 399T106 307H44L58 500H463V437L240 134Q217 102 184 73V72L325 69Q369 68 389 101T419 196H481L466 0H35V72Z" />
<glyph unicode="{" glyph-name="braceleft" horiz-adv-x="368" d="M106 -271T106 -57Q106 -35 108 -2T111 45Q116 102 116 136Q116 188 96 208T20 228H-3V299H20Q76 299 96 317T116 386Q116 420 111 465Q110 475 108 503T106 554Q106 659 162 709T333 760H361V689L337
690Q301 690 281 681T251 645T241 568Q241 547 247 487Q249 477 251 453Q252 446 252 433Q252 362 206 317T84 264V262Q163 254 210 203T252 73L248 24Q241 -39 241 -71Q241 -127 253 -155T290 -192T361 -200V-271H333Q106 -271 106 -57Z" />
<glyph unicode="|" glyph-name="bar" horiz-adv-x="259" d="M61 760H199L195 -271H63L61 760Z" />
<glyph unicode="}" glyph-name="braceright" horiz-adv-x="368" d="M262 -271T262 -57Q262 -35 260 -2T257 45Q252 102 252 136Q252 188 272 208T348 228H371V299H348Q292 299 272 317T252 386Q252 420 257 465Q258 475 260 503T262 554Q262 659 206 709T35 760H7V689L31
690Q67 690 87 681T117 645T127 568Q127 547 121 487Q119 477 117 453Q116 446 116 433Q116 362 162 317T284 264V262Q205 254 158 203T116 73L120 24Q127 -39 127 -71Q127 -127 115 -155T78 -192T7 -200V-271H35Q262 -271 262 -57Z" />
<glyph unicode="~" glyph-name="asciitilde" horiz-adv-x="540" d="M339 201T314 211T260 242Q231 260 214 268T171 276Q135 276 109 264T48 228V346Q82 374 110 386T175 399Q213 399 237 389T291 357Q317 339 334 331T378 323Q438 323 493 371V253Q444 201 374
201Q339 201 314 211Z" />
<glyph unicode="&#xa0;" glyph-name="uni00A0" horiz-adv-x="263" />
<glyph unicode="&#xa1;" glyph-name="exclamdown" horiz-adv-x="237" d="M190 -125Q193 -160 174 -188T118 -216Q80 -216 62 -189T47 -125L84 287H152L190 -125ZM148 516T169 493T191 438Q191 406 169 383T118 360Q87 360 67 383T46 438Q46 470 68 493T119 516Q148
516 169 493Z" />
<glyph unicode="&#xa2;" glyph-name="cent" horiz-adv-x="565" d="M484 48T438 22T341 -13L340 -137H257V-13Q166 0 109 66T51 239Q51 305 77 363T150 460T260 512L259 626H348L347 514Q421 506 462 468T503 379Q503 348 485 326T434 304Q401 304 385 324T368
369Q368 392 380 413Q371 431 351 438T311 446Q260 446 229 400T197 268Q197 183 230 128T334 73Q374 73 413 94T479 150L525 105Q484 48 438 22Z" />
<glyph unicode="&#xa3;" glyph-name="sterling" horiz-adv-x="573" d="M78 -16T65 0T51 40Q51 69 75 94T138 133Q145 146 150 167T155 204Q155 247 143 293L64 292V375H121Q109 425 109 475Q109 549 137 604T214 687T319 716Q377 716 415 697T470 649T488 592Q488
561 470 540T420 518Q389 518 373 538T356 579Q356 610 373 631Q362 646 330 646Q281 646 259 606T236 512Q236 455 250 375H408V298L266 295Q269 279 269 263Q269 225 252 191T201 134V133Q240 149 281 149Q309 149 331 141T381 118Q399 108 409 104T431 99Q443
99 453 114T466 156H531Q528 79 498 32T415 -16Q386 -16 360 -4T297 32Q234 71 190 72Q181 35 158 10T107 -16Q78 -16 65 0Z" />
<glyph unicode="&#xa4;" glyph-name="currency" horiz-adv-x="566" d="M63 85L120 151Q93 199 93 254Q93 309 123 361L63 430L135 488L185 425Q229 453 283 453Q336 453 382 425L432 487L504 430L443 361Q473 311 473 254Q473 196 446 151L504 85L432 27L384 87Q340
62 283 62Q225 62 183 87L135 27L63 85ZM319 138T335 179T352 269Q352 307 335 343T283 379Q248 379 232 343T215 269Q215 220 231 179T283 138Q319 138 335 179Z" />
<glyph unicode="&#xa5;" glyph-name="yen" horiz-adv-x="722" d="M231 66Q256 67 270 71T292 91T302 138H193V215H303V265H193V342H242L118 531Q103 554 92 582T80 626L32 623V700H326V634Q294 636 274 626T254 595Q254 579 267 557L344 432Q381 370 394 336H396Q404
356 442 433L494 535Q504 555 520 583T547 626V627L495 624L470 623V700H691V634Q656 629 631 606T578 527L479 340H547V267L447 266V214L547 213V140L447 139Q445 88 443 74Q476 77 523 77V0H231V66Z" />
<glyph unicode="&#xa6;" glyph-name="brokenbar" horiz-adv-x="248" d="M67 760H180L176 375H70L67 760ZM67 113H180L176 -271H70L67 113Z" />
<glyph unicode="&#xa7;" glyph-name="section" horiz-adv-x="549" d="M214 -228T172 -209T106 -158T82 -93Q82 -63 99 -43T144 -22Q174 -22 190 -41T207 -80Q207 -104 196 -122Q203 -138 223 -147T266 -157Q309 -157 332 -133T356 -76Q356 -31 321 2T221 73L188
93Q121 136 83 183T44 297Q44 336 64 376T122 451Q82 501 82 573Q82 615 103 658T168 731T280 760Q333 760 375 741T441 690T465 625Q465 595 448 575T403 554Q372 554 356 572T340 612Q340 637 351 653Q344 669 326 678T284 688Q241 688 218 664T194 606Q195 556
230 523T330 451L365 429Q430 387 467 340T505 226Q505 188 484 147T428 71Q448 40 458 17T468 -38Q468 -80 447 -124T381 -198T267 -228Q214 -228 172 -209ZM392 156T392 192Q392 224 371 251T320 300T241 351Q196 378 173 395Q159 364 159 331Q159 287 197 252T307
173Q360 140 377 127Q392 156 392 192Z" />
<glyph unicode="&#xa8;" glyph-name="dieresis" horiz-adv-x="427" d="M99 600T80 622T60 675Q60 706 80 728T127 751Q155 751 174 729T193 675Q193 644 173 622T126 600Q99 600 80 622ZM273 600T254 622T234 675Q234 706 254 728T301 751Q329 751 348 729T367
675Q367 644 347 622T300 600Q273 600 254 622Z" />
<glyph unicode="&#xa9;" glyph-name="copyright" horiz-adv-x="915" d="M338 -71T244 -18T98 128T46 340Q46 453 100 548T249 699T461 755Q579 755 672 699T817 548T869 339Q869 227 815 133T666 -16T459 -71Q338 -71 244 -18ZM563 -14T639 33T757 162T799 340Q799
437 757 518T637 648T459 697Q360 697 282 649T161 518T117 340Q117 243 159 162T280 34T462 -14Q563 -14 639 33ZM398 94T344 126T258 214T227 338Q227 399 253 457T331 552T457 590Q492 590 521 582T577 555Q576 563 576 586H652V411H585Q578 467 547 494T473
521Q438 521 409 499T363 438T346 349Q346 303 364 265T416 204T497 181Q533 181 568 200T631 254L679 209Q633 147 576 121T466 94Q398 94 344 126Z" />
<glyph unicode="&#xaa;" glyph-name="ordfeminine" horiz-adv-x="386" d="M86 367T61 388T35 447Q35 499 88 528T215 562V605Q215 630 208 645T179 661Q169 661 158 658T141 647Q148 637 148 619Q148 602 136 586T100 569Q77 569 64 582T50 618Q50 643 68 666T118
702T189 716Q313 716 313 586L312 472Q312 438 329 438Q339 438 346 443L366 414Q351 393 329 380T285 367Q262 367 245 381T224 424H223Q210 398 184 383T133 367Q86 367 61 388ZM190 441T215 466V514Q184 512 161 499T138 467Q138 456 144 449T166 441Q190 441
215 466Z" />
<glyph unicode="&#xab;" glyph-name="guillemotleft" horiz-adv-x="493" d="M334 32L145 274V275L331 508L284 554L20 285V261L287 -17L334 32ZM457 98L357 267V268L455 437L409 476L240 282V259L410 60L457 98Z" />
<glyph unicode="&#xac;" glyph-name="logicalnot" horiz-adv-x="581" d="M422 266L63 264V362L513 359V149H425L422 266Z" />
<glyph unicode="&#xad;" glyph-name="uni00AD" horiz-adv-x="293" d="M51 368H419V263L51 260V368Z" />
<glyph unicode="&#xae;" glyph-name="registered" horiz-adv-x="915" d="M338 -71T244 -18T98 128T46 340Q46 453 100 548T249 699T461 755Q579 755 672 699T817 548T869 339Q869 227 815 133T666 -16T459 -71Q338 -71 244 -18ZM563 -14T639 33T757 162T799 340Q799
437 757 518T637 648T459 697Q360 697 282 649T161 518T117 340Q117 243 159 162T280 34T462 -14Q563 -14 639 33ZM261 162Q280 163 289 166T303 182T309 221V474Q309 519 312 535L261 533V585L450 586Q641 586 641 447Q641 399 614 363T529 311Q540 306 549 296T569
268L596 225Q620 188 633 176T668 162V118H563Q538 137 512 181Q472 247 460 269T445 297H407V229L406 168L435 169Q457 169 462 170V118H261V162ZM484 354T510 378T536 447Q536 497 509 513T448 530Q426 530 417 519T407 476V357Q418 354 435 354Q484 354 510
378Z" />
<glyph unicode="&#xaf;" glyph-name="overscore" horiz-adv-x="374" d="M45 723H329V631L45 627V723Z" />
<glyph unicode="&#xb0;" glyph-name="degree" horiz-adv-x="382" d="M117 395T73 440T28 556Q28 600 50 637T110 695T192 716Q266 716 310 671T354 556Q354 511 332 475T272 417T190 395Q117 395 73 440ZM225 466T247 492T270 556Q270 593 248 619T191 646Q157
646 135 620T113 556Q113 519 135 493T191 466Q225 466 247 492Z" />
<glyph unicode="&#xb1;" glyph-name="plusminus" horiz-adv-x="556" d="M228 276L53 275V371L228 370V515H328V370H503V277L328 276V124H228V276ZM53 88L503 92V0H53V88Z" />
<glyph unicode="&#xb2;" glyph-name="uni00B2" horiz-adv-x="375" d="M46 345T59 377T93 434T146 487Q208 542 208 602Q208 658 161 658Q151 658 141 653T127 642Q134 636 137 627T141 611Q141 594 128 579T90 563Q68 564 56 579T43 617Q43 639 59 662T106 700T179
716Q237 716 277 690T317 609Q317 573 293 545T216 475Q204 465 191 455T165 432Q152 421 146 412T131 386L254 384Q268 383 275 391T283 421H331L325 302H46Q46 345 59 377Z" />
<glyph unicode="&#xb3;" glyph-name="uni00B3" horiz-adv-x="365" d="M129 292T99 305T52 341T36 389Q36 412 50 429T88 446Q112 446 123 432T134 396Q134 388 131 378T120 361Q132 346 164 346Q192 346 209 364T227 413Q227 446 207 465T147 485L113 484V538L148
537Q182 537 197 556T213 602Q213 631 200 646T162 662Q150 662 141 659T126 650Q133 645 136 636T140 619Q140 603 129 588T93 572Q70 572 56 586T42 623Q42 644 57 665T103 701T178 716Q238 716 275 689T313 611Q313 583 291 557T237 523V522Q284 513 308 486T332
417Q332 362 289 327T168 292Q129 292 99 305Z" />
<glyph unicode="&#xb4;" glyph-name="acute" horiz-adv-x="282" d="M44 606L126 746Q137 763 153 772T186 782Q204 782 220 770Q238 753 238 729Q238 714 231 698T211 671L90 565L44 606Z" />
<glyph unicode="&#xb5;" glyph-name="uni00B5" horiz-adv-x="612" d="M84 -271T84 -167V500H209V184Q209 138 232 109T291 79Q333 79 366 116V500H491L490 142Q490 120 494 106T514 91Q530 91 551 109L584 67Q565 39 532 17T463 -5Q432 -5 410 7T380 44H379Q352
14 328 4T272 -7Q199 -7 158 82L152 77Q193 -49 205 -101T218 -195Q218 -228 203 -249T154 -271Q84 -271 84 -167Z" />
<glyph unicode="&#xb6;" glyph-name="paragraph" horiz-adv-x="573" d="M168 401Q112 411 77 446T41 549Q41 622 85 661T193 700H485L483 -255H372L374 631L280 630Q278 94 278 -255H166L168 401Z" />
<glyph unicode="&#xb7;" glyph-name="middot" horiz-adv-x="226" d="M83 264T62 286T41 342Q41 374 63 397T114 420Q145 420 165 397T186 342Q186 309 167 287T115 264Q83 264 62 286Z" />
<glyph unicode="&#xb8;" glyph-name="cedilla" horiz-adv-x="325" d="M45 -207Q92 -198 128 -184T165 -144Q165 -131 157 -125T137 -119Q127 -119 116 -123T97 -133L60 -117L91 10H167L138 -69H139Q151 -63 172 -58T207 -53Q240 -54 260 -71T280 -123Q280 -184
210 -215T53 -259L45 -207Z" />
<glyph unicode="&#xb9;" glyph-name="uni00B9" horiz-adv-x="278" d="M64 339Q86 340 95 348T104 389V619L41 582L21 621L167 716H202V395Q202 364 200 344Q212 345 243 345V301H64V339Z" />
<glyph unicode="&#xba;" glyph-name="ordmasculine" horiz-adv-x="378" d="M117 364T74 411T30 533Q30 613 74 664T191 716Q264 716 306 668T348 542Q348 463 305 414T188 364Q117 364 74 411ZM217 420T230 448T244 531Q244 662 191 662Q166 662 152 634T137 550Q137
488 150 454T192 420Q217 420 230 448Z" />
<glyph unicode="&#xbb;" glyph-name="guillemotright" horiz-adv-x="493" d="M159 32L348 274V275L162 508L209 554L473 285V261L206 -17L159 32ZM36 98L136 267V268L38 437L84 476L253 282V259L83 60L36 98Z" />
<glyph unicode="&#xbc;" glyph-name="onequarter" horiz-adv-x="777" d="M64 339Q86 340 95 348T104 389V619L41 582L21 621L167 716H202V395Q202 364 200 344Q212 345 243 345V301H64V339ZM123 32L566 716L634 663L188 -16L123 32ZM539 34Q562 35 571 43T580
84V97L429 98V156L642 411H677V152L736 151V96H677V90Q677 59 675 39Q687 40 718 40V-4H539V34ZM587 273H586L496 155L582 153L587 273Z" />
<glyph unicode="&#xbd;" glyph-name="onehalf" horiz-adv-x="795" d="M64 339Q86 340 95 348T104 389V619L41 582L21 621L167 716H202V395Q202 364 200 344Q212 345 243 345V301H64V339ZM123 32L566 716L634 663L188 -16L123 32ZM469 40T482 72T516 129T569 182Q631
237 631 297Q631 353 584 353Q574 353 564 348T550 337Q557 331 560 322T564 306Q564 289 551 274T513 258Q491 259 479 274T466 312Q466 334 482 357T529 395T602 411Q660 411 700 385T740 304Q740 268 716 240T639 170Q627 160 614 150T588 127Q575 116 569 107T554
81L677 79Q691 78 698 86T706 116H754L748 -3H469Q469 40 482 72Z" />
<glyph unicode="&#xbe;" glyph-name="threequarters" horiz-adv-x="816" d="M129 292T99 305T52 341T36 389Q36 412 50 429T88 446Q112 446 123 432T134 396Q134 388 131 378T120 361Q132 346 164 346Q192 346 209 364T227 413Q227 446 207 465T147 485L113 484V538L148
537Q182 537 197 556T213 602Q213 631 200 646T162 662Q150 662 141 659T126 650Q133 645 136 636T140 619Q140 603 129 588T93 572Q70 572 56 586T42 623Q42 644 57 665T103 701T178 716Q238 716 275 689T313 611Q313 583 291 557T237 523V522Q284 513 308 486T332
417Q332 362 289 327T168 292Q129 292 99 305ZM162 32L605 716L673 663L227 -16L162 32ZM578 34Q601 35 610 43T619 84V97L468 98V156L681 411H716V152L775 151V96H716V90Q716 59 714 39Q726 40 757 40V-4H578V34ZM626 273H625L535 155L621 153L626 273Z" />
<glyph unicode="&#xbf;" glyph-name="questiondown" horiz-adv-x="493" d="M297 319T322 302T348 250Q348 225 333 201T267 127Q226 87 206 51T186 -37Q186 -88 205 -117T272 -146Q295 -146 316 -137T348 -114Q339 -105 335 -91T330 -64Q330 -42 346 -20T393 3Q427
3 444 -16T461 -68Q461 -104 434 -138T359 -194T253 -216Q142 -216 91 -171T40 -57Q40 -1 75 42T174 135Q213 166 230 184T248 220Q248 234 238 242T208 250Q194 250 178 246L163 297Q186 309 212 314T261 319Q297 319 322 302ZM280 516T301 493T323 438Q323 406
301 383T250 360Q219 360 199 383T178 438Q178 470 200 493T251 516Q280 516 301 493Z" />
<glyph unicode="&#xc0;" glyph-name="Agrave" horiz-adv-x="668" d="M4 69Q30 69 47 84T75 120T100 183L295 718H365L578 173Q586 153 595 124T606 74Q639 77 664 77V0H395V66Q443 66 443 106Q443 126 432 154L412 209L195 205L179 158Q176 150 166 122T147 77Q179
80 218 80V0H4V69ZM387 280L341 405Q312 487 303 542H302Q286 470 265 410L220 280H387ZM215 825Q198 836 187 853T175 889Q175 905 185 919Q203 941 229 941Q243 941 257 935T282 917L393 799L357 750L215 825Z" />
<glyph unicode="&#xc1;" glyph-name="Aacute" horiz-adv-x="668" d="M4 69Q30 69 47 84T75 120T100 183L295 718H365L578 173Q586 153 595 124T606 74Q639 77 664 77V0H395V66Q443 66 443 106Q443 126 432 154L412 209L195 205L179 158Q176 150 166 122T147 77Q179
80 218 80V0H4V69ZM387 280L341 405Q312 487 303 542H302Q286 470 265 410L220 280H387ZM453 825Q470 836 481 853T493 889Q493 905 483 919Q465 941 439 941Q425 941 411 935T386 917L275 799L311 750L453 825Z" />
<glyph unicode="&#xc2;" glyph-name="Acircumflex" horiz-adv-x="668" d="M4 69Q30 69 47 84T75 120T100 183L295 718H365L578 173Q586 153 595 124T606 74Q639 77 664 77V0H395V66Q443 66 443 106Q443 126 432 154L412 209L195 205L179 158Q176 150 166 122T147
77Q179 80 218 80V0H4V69ZM387 280L341 405Q312 487 303 542H302Q286 470 265 410L220 280H387ZM334 861L152 776L125 821L329 971H349L544 821L513 774L334 861Z" />
<glyph unicode="&#xc3;" glyph-name="Atilde" horiz-adv-x="668" d="M4 69Q30 69 47 84T75 120T100 183L295 718H365L578 173Q586 153 595 124T606 74Q639 77 664 77V0H395V66Q443 66 443 106Q443 126 432 154L412 209L195 205L179 158Q176 150 166 122T147 77Q179
80 218 80V0H4V69ZM387 280L341 405Q312 487 303 542H302Q286 470 265 410L220 280H387ZM123 831Q144 883 182 910T259 938Q282 938 300 931T342 911Q365 899 377 894T406 889Q426 889 449 907T487 954L544 922Q520 852 484 824T411 796Q390 796 372 802T332 822Q311
834 296 840T263 846Q241 846 219 834T179 794L123 831Z" />
<glyph unicode="&#xc4;" glyph-name="Adieresis" horiz-adv-x="668" d="M4 69Q30 69 47 84T75 120T100 183L295 718H365L578 173Q586 153 595 124T606 74Q639 77 664 77V0H395V66Q443 66 443 106Q443 126 432 154L412 209L195 205L179 158Q176 150 166 122T147
77Q179 80 218 80V0H4V69ZM387 280L341 405Q312 487 303 542H302Q286 470 265 410L220 280H387ZM220 797T200 819T180 872Q180 903 200 926T248 949Q276 949 295 927T314 872Q314 841 294 819T247 797Q220 797 200 819ZM394 797T375 819T355 872Q355 903 375 926T422
949Q450 949 469 927T488 872Q488 841 468 819T421 797Q394 797 375 819Z" />
<glyph unicode="&#xc5;" glyph-name="Aring" horiz-adv-x="668" d="M4 69Q30 69 47 84T75 120T100 183L295 718H365L578 173Q586 153 595 124T606 74Q639 77 664 77V0H395V66Q443 66 443 106Q443 126 432 154L412 209L195 205L179 158Q176 150 166 122T147 77Q179
80 218 80V0H4V69ZM387 280L341 405Q312 487 303 542H302Q286 470 265 410L220 280H387ZM281 751T241 783T201 877Q201 914 220 943T270 989T334 1006Q385 1006 425 975T468 885Q469 845 450 815T399 768T335 751Q281 751 241 783ZM357 805T368 820T379 867Q379
908 367 930T334 953Q314 953 302 935T290 885Q290 848 303 827T338 805Q357 805 368 820Z" />
<glyph unicode="&#xc6;" glyph-name="AE" horiz-adv-x="935" d="M-6 66Q25 66 51 93T113 171L436 625V626L361 623V700H861L867 506H801Q801 580 766 608T680 635L644 634Q620 633 606 628T585 603T577 547V397H694Q693 414 690 484H767V241H701Q701 281 689 300T656
324T603 329L577 328V164Q577 110 573 76H707Q758 76 793 110T829 220H895L889 0H361V66Q388 67 402 72T424 96T432 153V207Q402 207 336 205L236 202L201 151Q162 93 138 75V74L218 77V0H-6V66ZM432 276V362Q432 428 438 500Q413 462 366 392L285 276H432Z" />
<glyph unicode="&#xc7;" glyph-name="Ccedilla" horiz-adv-x="691" d="M257 -220Q294 -213 335 -193T376 -146Q376 -133 369 -127T350 -121Q340 -121 329 -125T309 -136L268 -121L294 -7Q216 11 158 60T68 182T36 340Q36 435 76 521T195 662T385 716Q426 716 472
703T557 667H558L555 709H632V476H566Q539 642 398 644Q332 644 286 605T216 500T193 360Q193 273 217 207T289 103T403 65Q466 65 528 98T631 188L679 144Q614 53 535 19T378 -16H369L350 -67H351Q362 -61 382 -57T416 -52Q449 -52 472 -71T495 -125Q495 -168
457 -200T365 -250T265 -275L257 -220Z" />
<glyph unicode="&#xc8;" glyph-name="Egrave" horiz-adv-x="624" d="M50 66Q77 67 91 72T113 96T121 153V536Q121 592 125 626L50 623V700H550L556 506H490Q490 580 455 608T369 635L333 634Q309 633 295 628T274 603T266 547V397H383Q382 414 379 484H456V241H390Q390
281 378 300T345 324T292 329L266 328V164Q266 110 262 76H396Q447 76 482 110T518 220H583L578 0H50V66ZM205 825Q188 836 177 853T165 889Q165 905 175 919Q193 941 219 941Q233 941 247 935T272 917L383 799L347 750L205 825Z" />
<glyph unicode="&#xc9;" glyph-name="Eacute" horiz-adv-x="624" d="M50 66Q77 67 91 72T113 96T121 153V536Q121 592 125 626L50 623V700H550L556 506H490Q490 580 455 608T369 635L333 634Q309 633 295 628T274 603T266 547V397H383Q382 414 379 484H456V241H390Q390
281 378 300T345 324T292 329L266 328V164Q266 110 262 76H396Q447 76 482 110T518 220H583L578 0H50V66ZM248 799L359 917Q370 928 384 934T412 941Q438 941 456 919Q466 905 466 889Q466 871 455 854T426 825L284 750L248 799Z" />
<glyph unicode="&#xca;" glyph-name="Ecircumflex" horiz-adv-x="624" d="M50 66Q77 67 91 72T113 96T121 153V536Q121 592 125 626L50 623V700H550L556 506H490Q490 580 455 608T369 635L333 634Q309 633 295 628T274 603T266 547V397H383Q382 414 379 484H456V241H390Q390
281 378 300T345 324T292 329L266 328V164Q266 110 262 76H396Q447 76 482 110T518 220H583L578 0H50V66ZM324 861L142 776L115 821L319 971H339L534 821L503 774L324 861Z" />
<glyph unicode="&#xcb;" glyph-name="Edieresis" horiz-adv-x="624" d="M50 66Q77 67 91 72T113 96T121 153V536Q121 592 125 626L50 623V700H550L556 506H490Q490 580 455 608T369 635L333 634Q309 633 295 628T274 603T266 547V397H383Q382 414 379 484H456V241H390Q390
281 378 300T345 324T292 329L266 328V164Q266 110 262 76H396Q447 76 482 110T518 220H583L578 0H50V66ZM210 797T190 819T170 872Q170 903 190 926T238 949Q266 949 285 927T304 872Q304 841 284 819T237 797Q210 797 190 819ZM384 797T365 819T345 872Q345 903
365 926T412 949Q440 949 459 927T478 872Q478 841 458 819T411 797Q384 797 365 819Z" />
<glyph unicode="&#xcc;" glyph-name="Igrave" horiz-adv-x="387" d="M50 66Q77 67 91 72T113 96T121 153V536Q121 592 125 626L50 623V700H337V634Q310 633 296 628T274 604T266 547V164Q266 108 262 74Q294 77 337 77V0H50V66ZM73 825Q56 836 45 853T33 889Q33
905 43 919Q61 941 87 941Q101 941 115 935T140 917L251 799L215 750L73 825Z" />
<glyph unicode="&#xcd;" glyph-name="Iacute" horiz-adv-x="387" d="M50 66Q77 67 91 72T113 96T121 153V536Q121 592 125 626L50 623V700H337V634Q310 633 296 628T274 604T266 547V164Q266 108 262 74Q294 77 337 77V0H50V66ZM116 799L227 917Q238 928 252 934T280
941Q306 941 324 919Q334 905 334 889Q334 871 323 854T294 825L152 750L116 799Z" />
<glyph unicode="&#xce;" glyph-name="Icircumflex" horiz-adv-x="387" d="M195 861L52 776L25 821L190 971H209L366 821L334 774L195 861ZM50 66Q77 67 91 72T113 96T121 153V536Q121 592 125 626L50 623V700H337V634Q310 633 296 628T274 604T266 547V164Q266
108 262 74Q294 77 337 77V0H50V66Z" />
<glyph unicode="&#xcf;" glyph-name="Idieresis" horiz-adv-x="387" d="M85 797T66 819T46 872Q46 903 66 926T113 949Q141 949 160 927T179 872Q179 841 159 819T112 797Q85 797 66 819ZM260 797T240 819T220 872Q220 903 240 926T288 949Q316 949 335 927T354
872Q354 841 334 819T287 797Q260 797 240 819ZM50 66Q77 67 91 72T113 96T121 153V536Q121 592 125 626L50 623V700H337V634Q310 633 296 628T274 604T266 547V164Q266 108 262 74Q294 77 337 77V0H50V66Z" />
<glyph unicode="&#xd0;" glyph-name="Eth" horiz-adv-x="759" d="M50 66Q77 68 91 73T113 96T121 153V313L30 312V391H121V537Q121 592 125 626L50 624V701L341 702Q466 702 552 653T681 524T724 357Q724 269 684 188T556 53T336 0H50V66ZM427 74T474 110T543
206T566 336Q566 488 505 561T333 635Q297 635 282 619T266 550V391H421V316L266 314V165Q266 109 262 75Q277 76 293 76T321 75Q335 74 357 74Q427 74 474 110Z" />
<glyph unicode="&#xd1;" glyph-name="Ntilde" horiz-adv-x="773" d="M262 399Q237 431 207 474H206L208 164Q208 108 204 74Q236 77 279 77V0H51V66Q78 67 92 72T114 96T122 153L120 536Q120 603 124 626L48 623V700H205L511 314Q553 259 581 219H582V536Q582
601 585 626L510 623V700H738V634Q711 633 697 628T675 604T667 547V-10H582L262 399ZM176 831Q197 883 235 910T312 938Q335 938 353 931T395 911Q418 899 430 894T459 889Q479 889 502 907T540 954L597 922Q573 852 537 824T464 796Q443 796 425 802T385 822Q364
834 349 840T316 846Q294 846 272 834T232 794L176 831Z" />
<glyph unicode="&#xd2;" glyph-name="Ograve" horiz-adv-x="769" d="M263 -16T185 37T71 173T35 350Q35 439 75 523T194 661T386 716Q501 716 579 662T696 523T734 350Q734 263 694 179T575 39T383 -16Q263 -16 185 37ZM458 57T499 98T558 202T576 333Q576 475
526 559T378 643Q312 643 270 601T210 495T192 362Q192 292 212 222T277 105T393 57Q458 57 499 98ZM265 825Q248 836 237 853T225 889Q225 905 235 919Q253 941 279 941Q293 941 307 935T332 917L443 799L407 750L265 825Z" />
<glyph unicode="&#xd3;" glyph-name="Oacute" horiz-adv-x="769" d="M263 -16T185 37T71 173T35 350Q35 439 75 523T194 661T386 716Q501 716 579 662T696 523T734 350Q734 263 694 179T575 39T383 -16Q263 -16 185 37ZM458 57T499 98T558 202T576 333Q576 475
526 559T378 643Q312 643 270 601T210 495T192 362Q192 292 212 222T277 105T393 57Q458 57 499 98ZM308 799L419 917Q430 928 444 934T472 941Q498 941 516 919Q526 905 526 889Q526 871 515 854T486 825L344 750L308 799Z" />
<glyph unicode="&#xd4;" glyph-name="Ocircumflex" horiz-adv-x="769" d="M263 -16T185 37T71 173T35 350Q35 439 75 523T194 661T386 716Q501 716 579 662T696 523T734 350Q734 263 694 179T575 39T383 -16Q263 -16 185 37ZM458 57T499 98T558 202T576 333Q576
475 526 559T378 643Q312 643 270 601T210 495T192 362Q192 292 212 222T277 105T393 57Q458 57 499 98ZM384 861L202 776L175 821L379 971H399L594 821L563 774L384 861Z" />
<glyph unicode="&#xd5;" glyph-name="Otilde" horiz-adv-x="769" d="M263 -16T185 37T71 173T35 350Q35 439 75 523T194 661T386 716Q501 716 579 662T696 523T734 350Q734 263 694 179T575 39T383 -16Q263 -16 185 37ZM458 57T499 98T558 202T576 333Q576 475
526 559T378 643Q312 643 270 601T210 495T192 362Q192 292 212 222T277 105T393 57Q458 57 499 98ZM173 831Q194 883 232 910T309 938Q332 938 350 931T392 911Q415 899 427 894T456 889Q476 889 499 907T537 954L594 922Q570 852 534 824T461 796Q440 796 422
802T382 822Q361 834 346 840T313 846Q291 846 269 834T229 794L173 831Z" />
<glyph unicode="&#xd6;" glyph-name="Odieresis" horiz-adv-x="769" d="M263 -16T185 37T71 173T35 350Q35 439 75 523T194 661T386 716Q501 716 579 662T696 523T734 350Q734 263 694 179T575 39T383 -16Q263 -16 185 37ZM458 57T499 98T558 202T576 333Q576
475 526 559T378 643Q312 643 270 601T210 495T192 362Q192 292 212 222T277 105T393 57Q458 57 499 98ZM270 797T250 819T230 872Q230 903 250 926T298 949Q326 949 345 927T364 872Q364 841 344 819T297 797Q270 797 250 819ZM444 797T425 819T405 872Q405 903
425 926T472 949Q500 949 519 927T538 872Q538 841 518 819T471 797Q444 797 425 819Z" />
<glyph unicode="&#xd7;" glyph-name="multiply" horiz-adv-x="560" d="M276 232L116 74L45 147L205 304L46 461L125 536L282 377L366 461L446 541L513 468L353 307L516 140L439 65L276 232Z" />
<glyph unicode="&#xd8;" glyph-name="Oslash" horiz-adv-x="768" d="M109 -49L167 50Q101 101 68 181T35 350Q35 439 75 523T194 661T386 716Q469 716 537 686L596 787L675 737L614 635Q674 582 704 506T734 350Q734 263 694 179T575 39T383 -16Q306 -16 246 7L184
-99L109 -49ZM489 604Q442 643 378 643Q312 643 270 601T210 495T192 362Q192 312 202 261T234 166L489 604ZM459 57T499 98T558 202T576 333Q576 443 546 519L294 89Q337 57 394 57Q459 57 499 98Z" />
<glyph unicode="&#xd9;" glyph-name="Ugrave" horiz-adv-x="760" d="M228 -16T163 67T97 294V536Q97 592 101 626L26 623V700H313V634Q287 633 273 628T250 604T242 547V272Q242 60 410 60Q489 60 532 114T576 274V536Q576 603 580 626L504 623V700H736V634Q709
633 695 628T673 604T665 547V297Q665 133 590 59T385 -16Q228 -16 163 67ZM266 825Q249 836 238 853T226 889Q226 905 236 919Q254 941 280 941Q294 941 308 935T333 917L444 799L408 750L266 825Z" />
<glyph unicode="&#xda;" glyph-name="Uacute" horiz-adv-x="760" d="M228 -16T163 67T97 294V536Q97 592 101 626L26 623V700H313V634Q287 633 273 628T250 604T242 547V272Q242 60 410 60Q489 60 532 114T576 274V536Q576 603 580 626L504 623V700H736V634Q709
633 695 628T673 604T665 547V297Q665 133 590 59T385 -16Q228 -16 163 67ZM309 799L420 917Q431 928 445 934T473 941Q499 941 517 919Q527 905 527 889Q527 871 516 854T487 825L345 750L309 799Z" />
<glyph unicode="&#xdb;" glyph-name="Ucircumflex" horiz-adv-x="760" d="M228 -16T163 67T97 294V536Q97 592 101 626L26 623V700H313V634Q287 633 273 628T250 604T242 547V272Q242 60 410 60Q489 60 532 114T576 274V536Q576 603 580 626L504 623V700H736V634Q709
633 695 628T673 604T665 547V297Q665 133 590 59T385 -16Q228 -16 163 67ZM385 861L203 776L176 821L380 971H400L595 821L564 774L385 861Z" />
<glyph unicode="&#xdc;" glyph-name="Udieresis" horiz-adv-x="760" d="M228 -16T163 67T97 294V536Q97 592 101 626L26 623V700H313V634Q287 633 273 628T250 604T242 547V272Q242 60 410 60Q489 60 532 114T576 274V536Q576 603 580 626L504 623V700H736V634Q709
633 695 628T673 604T665 547V297Q665 133 590 59T385 -16Q228 -16 163 67ZM271 797T251 819T231 872Q231 903 251 926T299 949Q327 949 346 927T365 872Q365 841 345 819T298 797Q271 797 251 819ZM445 797T426 819T406 872Q406 903 426 926T473 949Q501 949 520
927T539 872Q539 841 519 819T472 797Q445 797 426 819Z" />
<glyph unicode="&#xdd;" glyph-name="Yacute" horiz-adv-x="667" d="M203 66Q230 67 244 72T266 96T274 153V240L90 531Q75 556 64 583T52 626L3 623V700H298V634Q266 636 247 626T227 595Q227 577 239 557L315 432Q318 427 337 393T366 335H367Q370 342 374 350T383
370Q408 420 414 433L466 535Q497 601 519 626V627L467 624L442 623V700H663V634Q628 629 603 606T549 527L419 277V164Q419 108 415 74Q448 77 495 77V0H203V66ZM269 799L380 917Q391 928 405 934T433 941Q459 941 477 919Q487 905 487 889Q487 871 476 854T447
825L305 750L269 799Z" />
<glyph unicode="&#xde;" glyph-name="Thorn" horiz-adv-x="633" d="M50 66Q77 67 91 72T113 96T121 153V536Q121 592 125 626L50 623V700H337V634Q313 633 300 629T278 612T267 570L327 571Q617 574 617 367Q617 310 585 262T489 184T331 152Q281 150 266 151Q264
90 262 74Q294 77 337 77V0H50V66ZM385 223T423 259T462 368Q462 452 421 476T325 500H266V225Q288 223 303 223Q385 223 423 259Z" />
<glyph unicode="&#xdf;" glyph-name="germandbls" horiz-adv-x="771" d="M505 -16T452 23H451L454 -7H378L374 165H438Q443 117 478 87T574 56Q598 56 618 69T638 105Q638 132 615 148T527 189Q473 210 441 228T388 277T367 360Q367 415 398 457T494 512Q493 680
372 680Q317 680 281 637T244 487V163Q244 113 240 73Q272 76 310 76V0H42V65Q80 65 91 86T102 154V419L30 417V500H104Q115 639 186 697T375 755Q466 755 546 705T627 498Q627 473 624 444Q598 446 585 446Q484 446 483 393Q483 365 504 351T586 316Q668 288 712
246T757 138Q757 64 706 24T580 -16Q505 -16 452 23Z" />
<glyph unicode="&#xe0;" glyph-name="agrave" horiz-adv-x="524" d="M103 -16T67 21T30 117Q30 205 112 250T309 301V353Q309 444 241 444Q197 444 169 416Q181 402 181 378Q181 354 165 335T116 316Q86 316 69 335T52 384Q52 423 80 453T156 499T263 516Q448
516 448 325L447 161Q447 113 443 73Q476 76 508 76V0H319Q317 13 315 46H314Q253 -16 166 -16Q103 -16 67 21ZM274 82T308 118V230Q249 224 211 200T172 135Q172 108 188 95T229 82Q274 82 308 118ZM182 671Q170 683 163 698T155 728Q155 752 174 770Q189 782
208 782Q225 782 241 772T267 746L349 606L303 565L182 671Z" />
<glyph unicode="&#xe1;" glyph-name="aacute" horiz-adv-x="524" d="M103 -16T67 21T30 117Q30 205 112 250T309 301V353Q309 444 241 444Q197 444 169 416Q181 402 181 378Q181 354 165 335T116 316Q86 316 69 335T52 384Q52 423 80 453T156 499T263 516Q448
516 448 325L447 161Q447 113 443 73Q476 76 508 76V0H319Q317 13 315 46H314Q253 -16 166 -16Q103 -16 67 21ZM274 82T308 118V230Q249 224 211 200T172 135Q172 108 188 95T229 82Q274 82 308 118ZM155 606L237 746Q248 763 264 772T297 782Q315 782 331 770Q349
753 349 729Q349 714 342 698T322 671L201 565L155 606Z" />
<glyph unicode="&#xe2;" glyph-name="acircumflex" horiz-adv-x="524" d="M103 -16T67 21T30 117Q30 205 112 250T309 301V353Q309 444 241 444Q197 444 169 416Q181 402 181 378Q181 354 165 335T116 316Q86 316 69 335T52 384Q52 423 80 453T156 499T263 516Q448
516 448 325L447 161Q447 113 443 73Q476 76 508 76V0H319Q317 13 315 46H314Q253 -16 166 -16Q103 -16 67 21ZM274 82T308 118V230Q249 224 211 200T172 135Q172 108 188 95T229 82Q274 82 308 118ZM252 667H251L123 569L81 617L252 783H262L422 613L379 562L252
667Z" />
<glyph unicode="&#xe3;" glyph-name="atilde" horiz-adv-x="524" d="M103 -16T67 21T30 117Q30 205 112 250T309 301V353Q309 444 241 444Q197 444 169 416Q181 402 181 378Q181 354 165 335T116 316Q86 316 69 335T52 384Q52 423 80 453T156 499T263 516Q448
516 448 325L447 161Q447 113 443 73Q476 76 508 76V0H319Q317 13 315 46H314Q253 -16 166 -16Q103 -16 67 21ZM274 82T308 118V230Q249 224 211 200T172 135Q172 108 188 95T229 82Q274 82 308 118ZM73 638Q89 683 122 712T190 741Q212 741 227 736T259 720Q274
711 285 707T312 703Q329 703 345 716T374 753L431 724Q411 666 378 637T312 607Q293 607 278 612T242 629Q225 638 215 642T191 646Q176 646 160 637T129 605L73 638Z" />
<glyph unicode="&#xe4;" glyph-name="adieresis" horiz-adv-x="524" d="M103 -16T67 21T30 117Q30 205 112 250T309 301V353Q309 444 241 444Q197 444 169 416Q181 402 181 378Q181 354 165 335T116 316Q86 316 69 335T52 384Q52 423 80 453T156 499T263 516Q448
516 448 325L447 161Q447 113 443 73Q476 76 508 76V0H319Q317 13 315 46H314Q253 -16 166 -16Q103 -16 67 21ZM274 82T308 118V230Q249 224 211 200T172 135Q172 108 188 95T229 82Q274 82 308 118ZM138 600T119 622T99 675Q99 706 119 728T166 751Q194 751 213
729T232 675Q232 644 212 622T165 600Q138 600 119 622ZM312 600T293 622T273 675Q273 706 293 728T340 751Q368 751 387 729T406 675Q406 644 386 622T339 600Q312 600 293 622Z" />
<glyph unicode="&#xe5;" glyph-name="aring" horiz-adv-x="524" d="M103 -16T67 21T30 117Q30 205 112 250T309 301V353Q309 444 241 444Q197 444 169 416Q181 402 181 378Q181 354 165 335T116 316Q86 316 69 335T52 384Q52 423 80 453T156 499T263 516Q448 516
448 325L447 161Q447 113 443 73Q476 76 508 76V0H319Q317 13 315 46H314Q253 -16 166 -16Q103 -16 67 21ZM274 82T308 118V230Q249 224 211 200T172 135Q172 108 188 95T229 82Q274 82 308 118ZM224 563T197 576T152 616T134 678Q134 711 150 737T194 779T252
795Q299 795 334 766T370 681Q370 646 353 620T309 578T253 563Q224 563 197 576ZM272 625T281 637T291 672Q291 704 280 719T251 735Q237 734 227 722T217 687Q217 656 228 640T258 624Q272 625 281 637Z" />
<glyph unicode="&#xe6;" glyph-name="ae" horiz-adv-x="770" d="M104 -16T67 21T29 117Q29 205 111 250T309 301V355Q309 396 293 420T244 445Q194 445 168 418Q181 405 181 378Q181 355 164 336T115 316Q86 316 69 335T51 384Q51 421 77 451T151 498T255 516Q367
516 390 432H391Q419 478 455 497T549 516Q597 515 638 491T705 411T730 269L447 263Q447 172 473 123T568 73Q602 73 638 91T706 148L750 106Q702 36 647 10T531 -16Q433 -16 370 68Q328 20 277 2T167 -16Q104 -16 67 21ZM598 333Q597 391 578 418T532 445Q462
445 453 333H598ZM254 82T275 92T313 120Q309 171 309 230Q250 224 211 200T171 137Q171 110 189 96T231 82Q254 82 275 92Z" />
<glyph unicode="&#xe7;" glyph-name="ccedilla" horiz-adv-x="518" d="M209 -16T153 14T64 102T31 239Q31 314 64 377T156 478T291 516Q352 516 395 497T461 447T483 379Q483 348 465 326T414 304Q381 304 365 324T348 369Q348 392 360 413Q351 431 331 438T291
446Q240 446 209 400T177 268Q177 183 210 128T314 73Q354 73 393 94T459 150L505 105Q455 36 398 10T277 -16Q209 -16 153 14ZM239 -207Q286 -198 322 -184T359 -144Q359 -131 351 -125T331 -119Q321 -119 310 -123T291 -133L254 -117L285 10H361L332 -69H333Q345
-63 366 -58T401 -53Q434 -54 454 -71T474 -123Q474 -184 404 -215T247 -259L239 -207Z" />
<glyph unicode="&#xe8;" glyph-name="egrave" horiz-adv-x="538" d="M205 -16T149 16T62 109T31 249Q31 319 62 380T151 479T281 516Q378 516 442 459T506 269L178 263Q178 175 211 124T319 73Q354 73 394 91T466 148L511 106Q426 -16 278 -16Q205 -16 149 16ZM368
333Q365 446 286 446Q243 446 218 416T184 333H368ZM214 671Q202 683 195 698T187 728Q187 752 206 770Q221 782 240 782Q257 782 273 772T299 746L381 606L335 565L214 671Z" />
<glyph unicode="&#xe9;" glyph-name="eacute" horiz-adv-x="538" d="M205 -16T149 16T62 109T31 249Q31 319 62 380T151 479T281 516Q378 516 442 459T506 269L178 263Q178 175 211 124T319 73Q354 73 394 91T466 148L511 106Q426 -16 278 -16Q205 -16 149 16ZM368
333Q365 446 286 446Q243 446 218 416T184 333H368ZM187 606L269 746Q280 763 296 772T329 782Q347 782 363 770Q381 753 381 729Q381 714 374 698T354 671L233 565L187 606Z" />
<glyph unicode="&#xea;" glyph-name="ecircumflex" horiz-adv-x="538" d="M205 -16T149 16T62 109T31 249Q31 319 62 380T151 479T281 516Q378 516 442 459T506 269L178 263Q178 175 211 124T319 73Q354 73 394 91T466 148L511 106Q426 -16 278 -16Q205 -16 149
16ZM368 333Q365 446 286 446Q243 446 218 416T184 333H368ZM284 667H283L155 569L113 617L284 783H294L454 613L411 562L284 667Z" />
<glyph unicode="&#xeb;" glyph-name="edieresis" horiz-adv-x="538" d="M205 -16T149 16T62 109T31 249Q31 319 62 380T151 479T281 516Q378 516 442 459T506 269L178 263Q178 175 211 124T319 73Q354 73 394 91T466 148L511 106Q426 -16 278 -16Q205 -16 149
16ZM368 333Q365 446 286 446Q243 446 218 416T184 333H368ZM170 600T151 622T131 675Q131 706 151 728T198 751Q226 751 245 729T264 675Q264 644 244 622T197 600Q170 600 151 622ZM344 600T325 622T305 675Q305 706 325 728T372 751Q400 751 419 729T438 675Q438
644 418 622T371 600Q344 600 325 622Z" />
<glyph unicode="&#xec;" glyph-name="igrave" horiz-adv-x="327" d="M41 65Q79 65 89 86T100 154V320Q100 367 104 407L34 404V480Q97 480 136 489T188 510H242V161Q242 113 238 73Q270 76 303 76V0H41V65ZM94 671Q82 683 75 698T67 728Q67 752 86 770Q101 782
120 782Q137 782 153 772T179 746L261 606L215 565L94 671Z" />
<glyph unicode="&#xed;" glyph-name="iacute" horiz-adv-x="327" d="M41 65Q79 65 89 86T100 154V320Q100 367 104 407L34 404V480Q97 480 136 489T188 510H242V161Q242 113 238 73Q270 76 303 76V0H41V65ZM67 606L149 746Q160 763 176 772T209 782Q227 782 243
770Q261 753 261 729Q261 714 254 698T234 671L113 565L67 606Z" />
<glyph unicode="&#xee;" glyph-name="icircumflex" horiz-adv-x="327" d="M157 662H156L46 569L4 617L156 783H166L307 613L264 562L157 662ZM41 65Q79 65 89 86T100 154V320Q100 367 104 407L34 404V480Q97 480 136 489T188 510H242V161Q242 113 238 73Q270 76
303 76V0H41V65Z" />
<glyph unicode="&#xef;" glyph-name="idieresis" horiz-adv-x="327" d="M57 600T39 621T21 675Q21 706 39 728T84 751Q112 751 129 729T147 675Q147 643 129 622T84 600Q57 600 39 621ZM221 600T203 621T185 675Q185 706 203 728T249 751Q277 751 294 729T311
675Q311 643 293 622T248 600Q221 600 203 621ZM41 65Q79 65 89 86T100 154V320Q100 367 104 407L34 404V480Q97 480 136 489T188 510H242V161Q242 113 238 73Q270 76 303 76V0H41V65Z" />
<glyph unicode="&#xf0;" glyph-name="eth" horiz-adv-x="542" d="M195 -16T144 13T63 98T33 233Q33 299 59 359T136 458T261 496Q315 496 349 467H350Q340 505 305 548T236 615L178 544L118 598L167 655Q129 676 75 687L89 760Q163 752 224 723L275 790L333 738L291
688Q385 624 440 515T496 270Q496 190 470 125T391 22T262 -16Q195 -16 144 13ZM311 69T339 113T367 239Q367 308 343 362T270 417Q225 417 198 367T171 247Q171 165 199 117T269 69Q311 69 339 113Z" />
<glyph unicode="&#xf1;" glyph-name="ntilde" horiz-adv-x="636" d="M41 65Q79 65 89 86T100 154V322Q100 367 104 407L34 404V480Q97 480 136 489T188 510H237Q237 508 241 460H243Q272 483 314 499T387 516Q478 516 517 464T556 295V161Q556 113 552 73Q585
76 617 76V0H355V65Q393 65 404 86T415 154L414 296Q414 362 396 393T333 424Q309 424 284 414T242 387V161Q242 113 238 73Q270 76 303 76V0H41V65ZM165 638Q181 683 214 712T282 741Q304 741 319 736T351 720Q366 711 377 707T404 703Q421 703 437 716T466 753L523
724Q503 666 470 637T404 607Q385 607 370 612T334 629Q317 638 307 642T283 646Q268 646 252 637T221 605L165 638Z" />
<glyph unicode="&#xf2;" glyph-name="ograve" horiz-adv-x="566" d="M213 -16T155 15T64 104T31 239Q31 320 65 383T156 481T283 516Q355 516 412 485T502 396T535 259Q535 176 504 114T416 18T286 -16Q213 -16 155 15ZM343 55T365 106T387 234Q387 320 362 383T283
446Q228 446 203 394T178 266Q178 179 205 117T288 55Q343 55 365 106ZM213 671Q201 683 194 698T186 728Q186 752 205 770Q220 782 239 782Q256 782 272 772T298 746L380 606L334 565L213 671Z" />
<glyph unicode="&#xf3;" glyph-name="oacute" horiz-adv-x="566" d="M213 -16T155 15T64 104T31 239Q31 320 65 383T156 481T283 516Q355 516 412 485T502 396T535 259Q535 176 504 114T416 18T286 -16Q213 -16 155 15ZM343 55T365 106T387 234Q387 320 362 383T283
446Q228 446 203 394T178 266Q178 179 205 117T288 55Q343 55 365 106ZM186 606L268 746Q279 763 295 772T328 782Q346 782 362 770Q380 753 380 729Q380 714 373 698T353 671L232 565L186 606Z" />
<glyph unicode="&#xf4;" glyph-name="ocircumflex" horiz-adv-x="566" d="M213 -16T155 15T64 104T31 239Q31 320 65 383T156 481T283 516Q355 516 412 485T502 396T535 259Q535 176 504 114T416 18T286 -16Q213 -16 155 15ZM343 55T365 106T387 234Q387 320 362
383T283 446Q228 446 203 394T178 266Q178 179 205 117T288 55Q343 55 365 106ZM283 667H282L154 569L112 617L283 783H293L453 613L410 562L283 667Z" />
<glyph unicode="&#xf5;" glyph-name="otilde" horiz-adv-x="566" d="M213 -16T155 15T64 104T31 239Q31 320 65 383T156 481T283 516Q355 516 412 485T502 396T535 259Q535 176 504 114T416 18T286 -16Q213 -16 155 15ZM343 55T365 106T387 234Q387 320 362 383T283
446Q228 446 203 394T178 266Q178 179 205 117T288 55Q343 55 365 106ZM104 638Q120 683 153 712T221 741Q243 741 258 736T290 720Q305 711 316 707T343 703Q360 703 376 716T405 753L462 724Q442 666 409 637T343 607Q324 607 309 612T273 629Q256 638 246 642T222
646Q207 646 191 637T160 605L104 638Z" />
<glyph unicode="&#xf6;" glyph-name="odieresis" horiz-adv-x="566" d="M213 -16T155 15T64 104T31 239Q31 320 65 383T156 481T283 516Q355 516 412 485T502 396T535 259Q535 176 504 114T416 18T286 -16Q213 -16 155 15ZM343 55T365 106T387 234Q387 320 362
383T283 446Q228 446 203 394T178 266Q178 179 205 117T288 55Q343 55 365 106ZM169 600T150 622T130 675Q130 706 150 728T197 751Q225 751 244 729T263 675Q263 644 243 622T196 600Q169 600 150 622ZM343 600T324 622T304 675Q304 706 324 728T371 751Q399 751
418 729T437 675Q437 644 417 622T370 600Q343 600 324 622Z" />
<glyph unicode="&#xf7;" glyph-name="divide" horiz-adv-x="281" d="M110 44T89 66T68 122Q68 154 90 177T141 200Q172 200 192 177T213 122Q213 89 194 67T142 44Q110 44 89 66ZM110 387T89 409T68 465Q68 497 90 520T141 543Q172 543 192 520T213 465Q213 432
194 410T142 387Q110 387 89 409Z" />
<glyph unicode="&#xf8;" glyph-name="oslash" horiz-adv-x="566" d="M55 -36L108 48Q71 82 51 130T31 239Q31 320 65 383T156 481T283 516Q341 516 394 494L445 574L512 531L460 450Q495 416 515 367T535 259Q535 176 504 114T416 18T286 -16Q226 -16 174 6L116
-83L55 -36ZM188 171L343 415Q320 446 281 446Q227 445 203 393T178 266Q178 210 187 171H188ZM343 55T365 106T387 234Q387 284 380 326H379L225 85Q252 55 287 55Q343 55 365 106Z" />
<glyph unicode="&#xf9;" glyph-name="ugrave" horiz-adv-x="618" d="M159 -16T121 36T82 205V320Q82 362 85 407L15 404V480Q78 480 117 489T169 510H224V204Q224 138 241 107T295 76Q320 76 346 90T391 124V320Q391 367 395 407L325 404V480Q388 480 426 489T478
510H533V161Q533 113 529 73Q561 76 594 76V0H404L398 52H397Q360 20 326 2T248 -16Q159 -16 121 36ZM236 671Q224 683 217 698T209 728Q209 752 228 770Q243 782 262 782Q279 782 295 772T321 746L403 606L357 565L236 671Z" />
<glyph unicode="&#xfa;" glyph-name="uacute" horiz-adv-x="618" d="M159 -16T121 36T82 205V320Q82 362 85 407L15 404V480Q78 480 117 489T169 510H224V204Q224 138 241 107T295 76Q320 76 346 90T391 124V320Q391 367 395 407L325 404V480Q388 480 426 489T478
510H533V161Q533 113 529 73Q561 76 594 76V0H404L398 52H397Q360 20 326 2T248 -16Q159 -16 121 36ZM209 606L291 746Q302 763 318 772T351 782Q369 782 385 770Q403 753 403 729Q403 714 396 698T376 671L255 565L209 606Z" />
<glyph unicode="&#xfb;" glyph-name="ucircumflex" horiz-adv-x="618" d="M159 -16T121 36T82 205V320Q82 362 85 407L15 404V480Q78 480 117 489T169 510H224V204Q224 138 241 107T295 76Q320 76 346 90T391 124V320Q391 367 395 407L325 404V480Q388 480 426
489T478 510H533V161Q533 113 529 73Q561 76 594 76V0H404L398 52H397Q360 20 326 2T248 -16Q159 -16 121 36ZM306 667H305L177 569L135 617L306 783H316L476 613L433 562L306 667Z" />
<glyph unicode="&#xfc;" glyph-name="udieresis" horiz-adv-x="618" d="M159 -16T121 36T82 205V320Q82 362 85 407L15 404V480Q78 480 117 489T169 510H224V204Q224 138 241 107T295 76Q320 76 346 90T391 124V320Q391 367 395 407L325 404V480Q388 480 426 489T478
510H533V161Q533 113 529 73Q561 76 594 76V0H404L398 52H397Q360 20 326 2T248 -16Q159 -16 121 36ZM192 600T173 622T153 675Q153 706 173 728T220 751Q248 751 267 729T286 675Q286 644 266 622T219 600Q192 600 173 622ZM366 600T347 622T327 675Q327 706 347
728T394 751Q422 751 441 729T460 675Q460 644 440 622T393 600Q366 600 347 622Z" />
<glyph unicode="&#xfd;" glyph-name="yacute" horiz-adv-x="551" d="M109 -271T83 -248T57 -189Q57 -161 75 -141T122 -120Q144 -120 158 -135T173 -176Q173 -184 172 -189V-190Q191 -190 214 -142T257 -26L99 291Q73 341 64 369T51 426L5 424V500H254V436Q212
431 212 397Q212 380 222 358L320 134H321L342 201Q353 239 384 333Q406 403 426 427V428L369 424V500H547V436Q518 429 497 400T459 322L334 -35Q304 -124 279 -173T224 -246T148 -271Q109 -271 83 -248ZM198 606L280 746Q291 763 307 772T340 782Q358 782 374
770Q392 753 392 729Q392 714 385 698T365 671L244 565L198 606Z" />
<glyph unicode="&#xfe;" glyph-name="thorn" horiz-adv-x="573" d="M3 -190Q41 -190 52 -169T63 -101V565Q63 623 66 652L-4 649V725Q59 725 98 734T150 755H204V462H206Q267 516 339 516Q399 516 444 485T515 397T541 263Q541 183 510 120T423 20T293 -16Q254
-16 204 2V-94Q204 -142 200 -182Q233 -179 265 -179V-255H3V-190ZM394 59T394 248Q394 322 368 374T288 426Q263 426 241 414T204 382V77Q214 70 233 65T272 59Q394 59 394 248Z" />
<glyph unicode="&#xff;" glyph-name="ydieresis" horiz-adv-x="551" d="M109 -271T83 -248T57 -189Q57 -161 75 -141T122 -120Q144 -120 158 -135T173 -176Q173 -184 172 -189V-190Q191 -190 214 -142T257 -26L99 291Q73 341 64 369T51 426L5 424V500H254V436Q212
431 212 397Q212 380 222 358L320 134H321L342 201Q353 239 384 333Q406 403 426 427V428L369 424V500H547V436Q518 429 497 400T459 322L334 -35Q304 -124 279 -173T224 -246T148 -271Q109 -271 83 -248ZM181 600T162 622T142 675Q142 706 162 728T209 751Q237
751 256 729T275 675Q275 644 255 622T208 600Q181 600 162 622ZM355 600T336 622T316 675Q316 706 336 728T383 751Q411 751 430 729T449 675Q449 644 429 622T382 600Q355 600 336 622Z" />
<glyph unicode="&#x2013;" glyph-name="endash" horiz-adv-x="563" d="M52 368H511V263L52 260V368Z" />
<glyph unicode="&#x2014;" glyph-name="emdash" horiz-adv-x="845" d="M52 368H793V263L52 260V368Z" />
<glyph unicode="&#x2018;" glyph-name="quoteleft" horiz-adv-x="223" d="M164 732Q144 706 125 660T107 574Q116 577 128 577Q157 577 177 561T197 511Q197 479 177 458T123 436Q80 436 57 465T33 541Q33 590 56 647T125 760L164 732Z" />
<glyph unicode="&#x2019;" glyph-name="quoteright" horiz-adv-x="210" d="M54 464Q74 490 93 536T111 622Q102 619 90 619Q61 619 41 635T21 685Q21 717 41 738T95 760Q138 760 161 731T185 655Q185 606 162 549T93 436L54 464Z" />
<glyph unicode="&#x201a;" glyph-name="quotesinglbase" horiz-adv-x="250" d="M77 -159Q97 -133 116 -87T134 -1Q125 -4 113 -4Q84 -4 64 12T44 62Q44 94 64 115T118 137Q161 137 184 108T208 32Q208 -17 185 -74T116 -187L77 -159Z" />
<glyph unicode="&#x201c;" glyph-name="quotedblleft" horiz-adv-x="423" d="M164 732Q144 706 125 660T107 574Q116 577 128 577Q157 577 177 561T197 511Q197 479 177 458T123 436Q80 436 57 465T33 541Q33 590 56 647T125 760L164 732ZM364 732Q344 706 325
660T307 574Q316 577 328 577Q357 577 377 561T397 511Q397 479 377 458T323 436Q280 436 257 465T233 541Q233 590 256 647T325 760L364 732Z" />
<glyph unicode="&#x201d;" glyph-name="quotedblright" horiz-adv-x="411" d="M54 464Q74 490 93 536T111 622Q102 619 90 619Q61 619 41 635T21 685Q21 717 41 738T95 760Q138 760 161 731T185 655Q185 606 162 549T93 436L54 464ZM254 464Q274 490 293 536T311
622Q302 619 290 619Q261 619 241 635T221 685Q221 717 241 738T295 760Q338 760 361 731T385 655Q385 606 362 549T293 436L254 464Z" />
<glyph unicode="&#x201e;" glyph-name="quotedblbase" horiz-adv-x="450" d="M77 -159Q97 -133 116 -87T134 -1Q125 -4 113 -4Q84 -4 64 12T44 62Q44 94 64 115T118 137Q161 137 184 108T208 32Q208 -17 185 -74T116 -187L77 -159ZM277 -159Q297 -133 316 -87T334
-1Q325 -4 313 -4Q284 -4 264 12T244 62Q244 94 264 115T318 137Q361 137 384 108T408 32Q408 -17 385 -74T316 -187L277 -159Z" />
<glyph unicode="&#x2022;" glyph-name="bullet" horiz-adv-x="382" d="M147 206T111 227T53 284T31 363Q31 406 52 442T110 499T190 520Q233 520 270 499T329 442T351 363Q351 320 329 284T270 227T190 206Q147 206 111 227Z" />
<glyph unicode="&#x2039;" glyph-name="guilsinglleft" horiz-adv-x="378" d="M345 39L163 274V275L345 498L288 553L19 284V262L290 -16L345 39Z" />
<glyph unicode="&#x203a;" glyph-name="guilsinglright" horiz-adv-x="378" d="M33 39L215 274V275L33 498L90 553L359 284V262L88 -16L33 39Z" />
</font>
</defs>
</svg>
