<?xml version="1.0" standalone="no"?>
<!DOCTYPE svg PUBLIC "-//W3C//DTD SVG 1.1//EN" "http://www.w3.org/Graphics/SVG/1.1/DTD/svg11.dtd">
<svg xmlns="http://www.w3.org/2000/svg">
<defs >
<font id="OpenSans" horiz-adv-x="1250" ><font-face
    font-family="Open Sans SemiBold"
    units-per-em="2048"
    panose-1="2 11 7 6 3 8 4 2 2 4"
    ascent="2189"
    descent="-600"
    alphabetic="0" />
<glyph unicode=" " glyph-name="space" horiz-adv-x="532" />
<glyph unicode="!" glyph-name="exclam" horiz-adv-x="565" d="M371 444H197L145 1462H422L371 444ZM133 125Q133 199 172 237T283 276Q354 276 392 236T430 125Q430 54 392 13T283 -29Q212 -29 173 11T133 125Z" />
<glyph unicode="&quot;" glyph-name="quotedbl" horiz-adv-x="893" d="M365 1462L324 934H174L133 1462H365ZM760 1462L719 934H569L528 1462H760Z" />
<glyph unicode="#" glyph-name="numbersign" horiz-adv-x="1323" d="M989 870L934 586H1204V418H901L821 0H643L723 418H475L395 0H221L297 418H47V586H330L387 870H123V1038H416L496 1460H676L596 1038H848L928 1460H1102L1022 1038H1274V870H989ZM506 586H756L813
870H563L506 586Z" />
<glyph unicode="$" glyph-name="dollar" horiz-adv-x="1169" d="M1063 453Q1063 308 957 214T651 98V-119H518V92Q270 96 111 168V379Q197 337 312 309T518 279V653L434 684Q270 747 195 834T119 1051Q119 1189 226 1278T518 1386V1554H651V1389Q854 1382 1036
1307L963 1124Q806 1186 651 1198V834L727 805Q917 732 990 651T1063 453ZM827 438Q827 496 787 533T651 606V287Q827 314 827 438ZM354 1053Q354 996 389 958T518 883V1194Q438 1182 396 1145T354 1053Z" />
<glyph unicode="%" glyph-name="percent" horiz-adv-x="1765" d="M279 1024Q279 875 308 802T403 729Q535 729 535 1024Q535 1319 403 1319Q337 1319 308 1246T279 1024ZM729 1026Q729 796 647 681T403 565Q251 565 168 684T84 1026Q84 1483 403 1483Q560 1483
644 1365T729 1026ZM1231 440Q1231 291 1260 217T1356 143Q1487 143 1487 440Q1487 733 1356 733Q1290 733 1261 661T1231 440ZM1681 440Q1681 210 1598 95T1356 -20Q1204 -20 1120 98T1036 440Q1036 897 1356 897Q1510 897 1595 779T1681 440ZM1384 1462L573 0H379L1190
1462H1384Z" />
<glyph unicode="&amp;" glyph-name="ampersand" horiz-adv-x="1516" d="M451 1147Q451 1084 484 1028T578 909Q691 973 736 1028T782 1153Q782 1218 739 1257T623 1296Q544 1296 498 1256T451 1147ZM600 182Q783 182 913 289L530 666Q424 598 384 539T344 403Q344
305 413 244T600 182ZM96 387Q96 518 160 615T391 809Q296 920 262 996T227 1155Q227 1307 335 1395T627 1483Q804 1483 905 1398T1006 1167Q1006 1053 939 960T713 774L1059 440Q1140 547 1194 754H1436Q1366 470 1212 291L1513 0H1210L1061 145Q959 63 844 22T588
-20Q358 -20 227 89T96 387Z" />
<glyph unicode="&apos;" glyph-name="quotesingle" horiz-adv-x="498" d="M365 1462L324 934H174L133 1462H365Z" />
<glyph unicode="(" glyph-name="parenleft" horiz-adv-x="649" d="M82 561Q82 826 159 1057T383 1462H588Q449 1274 375 1041T301 563Q301 319 375 90T586 -324H383Q236 -154 159 73T82 561Z" />
<glyph unicode=")" glyph-name="parenright" horiz-adv-x="649" d="M567 561Q567 298 490 71T266 -324H63Q201 -137 274 91T348 563Q348 808 274 1040T61 1462H266Q413 1287 490 1056T567 561Z" />
<glyph unicode="*" glyph-name="asterisk" horiz-adv-x="1122" d="M672 1556L631 1174L1016 1282L1044 1065L684 1036L920 725L721 618L555 956L406 618L201 725L432 1036L74 1065L109 1282L485 1174L444 1556H672Z" />
<glyph unicode="+" glyph-name="plus" horiz-adv-x="1169" d="M494 633H96V811H494V1219H674V811H1073V633H674V227H494V633Z" />
<glyph unicode="," glyph-name="comma" horiz-adv-x="547" d="M412 215Q364 29 236 -264H63Q132 6 166 238H397L412 215Z" />
<glyph unicode="-" glyph-name="hyphen" horiz-adv-x="659" d="M72 449V649H586V449H72Z" />
<glyph unicode="." glyph-name="period" horiz-adv-x="563" d="M133 125Q133 198 171 237T281 276Q354 276 392 236T430 125Q430 54 392 13T281 -29Q209 -29 171 12T133 125Z" />
<glyph unicode="/" glyph-name="slash" horiz-adv-x="799" d="M782 1462L238 0H16L561 1462H782Z" />
<glyph unicode="0" glyph-name="zero" horiz-adv-x="1169" d="M1081 731Q1081 350 959 165T584 -20Q340 -20 214 171T88 731Q88 1118 210 1301T584 1485Q829 1485 955 1293T1081 731ZM326 731Q326 432 387 304T584 176Q719 176 781 306T844 731Q844 1025 782 1156T584
1288Q449 1288 388 1159T326 731Z" />
<glyph unicode="1" glyph-name="one" horiz-adv-x="1169" d="M780 0H545V944Q545 1113 553 1212Q530 1188 497 1159T272 975L154 1124L584 1462H780V0Z" />
<glyph unicode="2" glyph-name="two" horiz-adv-x="1169" d="M1081 0H90V178L467 557Q634 728 688 799T768 934T793 1069Q793 1168 734 1225T569 1282Q485 1282 407 1251T225 1139L98 1294Q220 1397 335 1440T580 1483Q784 1483 907 1377T1030 1090Q1030 991 995
902T886 719T641 463L387 217V207H1081V0Z" />
<glyph unicode="3" glyph-name="three" horiz-adv-x="1169" d="M1026 1126Q1026 987 945 895T717 770V762Q893 740 981 653T1069 420Q1069 209 920 95T496 -20Q253 -20 86 59V268Q179 222 283 197T483 172Q653 172 737 235T821 430Q821 547 728 602T436 657H309V848H438Q788
848 788 1090Q788 1184 727 1235T547 1286Q464 1286 387 1263T205 1171L90 1335Q291 1483 557 1483Q778 1483 902 1388T1026 1126Z" />
<glyph unicode="4" glyph-name="four" horiz-adv-x="1169" d="M1133 319H936V0H707V319H39V500L707 1466H936V514H1133V319ZM707 514V881Q707 1077 717 1202H709Q681 1136 621 1042L258 514H707Z" />
<glyph unicode="5" glyph-name="five" horiz-adv-x="1169" d="M586 913Q807 913 936 796T1065 477Q1065 243 919 112T502 -20Q257 -20 117 59V272Q198 226 303 201T498 176Q657 176 740 247T823 455Q823 717 489 717Q442 717 373 708T252 686L147 748L203 1462H963V1253H410L377
891Q412 897 462 905T586 913Z" />
<glyph unicode="6" glyph-name="six" horiz-adv-x="1169" d="M94 623Q94 1481 793 1481Q903 1481 979 1464V1268Q903 1290 803 1290Q568 1290 450 1164T322 760H334Q381 841 466 885T666 930Q865 930 976 808T1087 477Q1087 247 959 114T608 -20Q451 -20 335 55T157
275T94 623ZM604 174Q725 174 790 252T856 475Q856 601 795 673T610 745Q534 745 470 713T369 624T332 508Q332 367 408 271T604 174Z" />
<glyph unicode="7" glyph-name="seven" horiz-adv-x="1169" d="M256 0L834 1253H74V1460H1085V1296L510 0H256Z" />
<glyph unicode="8" glyph-name="eight" horiz-adv-x="1169" d="M584 1481Q792 1481 913 1386T1034 1130Q1034 905 764 772Q936 686 1008 591T1081 379Q1081 198 948 89T588 -20Q350 -20 219 82T88 371Q88 493 156 590T381 764Q247 844 190 933T133 1133Q133 1292
258 1386T584 1481ZM313 379Q313 275 386 218T584 160Q713 160 784 219T856 381Q856 462 790 529T590 653L561 666Q429 608 371 539T313 379ZM582 1300Q482 1300 421 1251T360 1116Q360 1064 382 1023T446 949T588 868Q708 921 757 979T807 1116Q807 1201 746 1250T582
1300Z" />
<glyph unicode="9" glyph-name="nine" horiz-adv-x="1169" d="M1079 838Q1079 406 905 193T381 -20Q248 -20 190 -4V193Q279 168 369 168Q607 168 724 296T852 698H840Q781 608 698 568T502 528Q308 528 197 649T86 981Q86 1210 214 1345T565 1481Q721 1481 837
1405T1016 1185T1079 838ZM569 1286Q447 1286 382 1207T317 983Q317 858 377 787T561 715Q680 715 761 786T842 952Q842 1041 808 1118T711 1241T569 1286Z" />
<glyph unicode=":" glyph-name="colon" horiz-adv-x="563" d="M133 125Q133 198 171 237T281 276Q354 276 392 236T430 125Q430 54 392 13T281 -29Q209 -29 171 12T133 125ZM133 979Q133 1130 281 1130Q356 1130 393 1090T430 979Q430 908 392 867T281 825Q209
825 171 866T133 979Z" />
<glyph unicode=";" glyph-name="semicolon" horiz-adv-x="569" d="M397 238L412 215Q364 29 236 -264H63Q132 6 166 238H397ZM131 979Q131 1130 279 1130Q354 1130 391 1090T428 979Q428 908 390 867T279 825Q207 825 169 866T131 979Z" />
<glyph unicode="&lt;" glyph-name="less" horiz-adv-x="1169" d="M1073 221L96 651V772L1073 1260V1065L340 721L1073 418V221Z" />
<glyph unicode="=" glyph-name="equal" horiz-adv-x="1169" d="M102 831V1010H1065V831H102ZM102 432V610H1065V432H102Z" />
<glyph unicode="&gt;" glyph-name="greater" horiz-adv-x="1169" d="M96 418L829 721L96 1065V1260L1073 772V651L96 221V418Z" />
<glyph unicode="?" glyph-name="question" horiz-adv-x="928" d="M283 444V508Q283 618 323 691T463 842Q582 936 616 988T651 1112Q651 1196 595 1241T434 1286Q339 1286 258 1259T100 1194L16 1370Q219 1483 451 1483Q647 1483 762 1387T877 1122Q877 1047 855
989T789 877T635 739Q542 666 511 618T479 489V444H283ZM242 125Q242 276 389 276Q461 276 499 237T537 125Q537 54 499 13T389 -29Q318 -29 280 11T242 125Z" />
<glyph unicode="@" glyph-name="at" horiz-adv-x="1839" d="M1726 739Q1726 596 1681 478T1555 293T1366 227Q1287 227 1229 269T1151 383H1139Q1090 305 1018 266T856 227Q693 227 600 332T506 616Q506 822 630 950T963 1079Q1039 1079 1131 1066T1296 1028L1274
563V539Q1274 379 1378 379Q1457 379 1503 481T1550 741Q1550 912 1480 1041T1281 1241T985 1311Q772 1311 615 1223T374 972T291 592Q291 302 446 146T891 -10Q1112 -10 1352 80V-84Q1142 -170 895 -170Q525 -170 318 29T111 586Q111 847 223 1050T533 1362T983
1470Q1200 1470 1369 1380T1632 1124T1726 739ZM698 612Q698 379 881 379Q1074 379 1092 672L1104 911Q1041 928 969 928Q841 928 770 843T698 612Z" />
<glyph unicode="A" glyph-name="A" horiz-adv-x="1354" d="M1100 0L954 406H395L252 0H0L547 1468H807L1354 0H1100ZM891 612L754 1010Q739 1050 713 1136T676 1262Q649 1139 597 993L465 612H891Z" />
<glyph unicode="B" glyph-name="B" horiz-adv-x="1352" d="M193 1462H627Q929 1462 1063 1374T1198 1096Q1198 968 1132 883T942 776V766Q1096 737 1168 652T1241 420Q1241 223 1104 112T721 0H193V1462ZM432 858H662Q812 858 881 905T950 1067Q950 1170 876 1216T639
1262H432V858ZM432 664V201H686Q836 201 912 258T989 440Q989 554 911 609T674 664H432Z" />
<glyph unicode="C" glyph-name="C" horiz-adv-x="1298" d="M815 1278Q609 1278 491 1132T373 729Q373 460 486 322T815 184Q908 184 995 202T1176 250V45Q1004 -20 786 -20Q465 -20 293 174T121 731Q121 959 204 1130T446 1392T817 1483Q1041 1483 1231 1389L1145
1190Q1071 1225 989 1251T815 1278Z" />
<glyph unicode="D" glyph-name="D" horiz-adv-x="1503" d="M1382 745Q1382 383 1181 192T602 0H193V1462H645Q994 1462 1188 1274T1382 745ZM1130 737Q1130 1262 639 1262H432V201H602Q1130 201 1130 737Z" />
<glyph unicode="E" glyph-name="E" horiz-adv-x="1143" d="M1020 0H193V1462H1020V1260H432V862H983V662H432V203H1020V0Z" />
<glyph unicode="F" glyph-name="F" horiz-adv-x="1090" d="M430 0H193V1462H1018V1260H430V803H981V600H430V0Z" />
<glyph unicode="G" glyph-name="G" horiz-adv-x="1487" d="M791 793H1329V59Q1197 16 1076 -2T813 -20Q481 -20 301 176T121 731Q121 1084 324 1283T883 1483Q1112 1483 1317 1395L1233 1196Q1055 1278 877 1278Q643 1278 507 1131T371 729Q371 461 493 322T846
182Q962 182 1094 211V588H791V793Z" />
<glyph unicode="H" glyph-name="H" horiz-adv-x="1538" d="M1346 0H1106V659H432V0H193V1462H432V864H1106V1462H1346V0Z" />
<glyph unicode="I" glyph-name="I" horiz-adv-x="625" d="M193 0V1462H432V0H193Z" />
<glyph unicode="J" glyph-name="J" horiz-adv-x="612" d="M8 -408Q-90 -408 -156 -383V-182Q-72 -203 -10 -203Q186 -203 186 45V1462H426V53Q426 -171 320 -289T8 -408Z" />
<glyph unicode="K" glyph-name="K" horiz-adv-x="1309" d="M1309 0H1032L573 662L432 547V0H193V1462H432V764Q530 884 627 995L1022 1462H1294Q911 1012 745 821L1309 0Z" />
<glyph unicode="L" glyph-name="L" horiz-adv-x="1110" d="M193 0V1462H432V205H1051V0H193Z" />
<glyph unicode="M" glyph-name="M" horiz-adv-x="1890" d="M825 0L401 1221H393Q410 949 410 711V0H193V1462H530L936 299H942L1360 1462H1698V0H1468V723Q1468 832 1473 1007T1483 1219H1475L1036 0H825Z" />
<glyph unicode="N" glyph-name="N" horiz-adv-x="1604" d="M1411 0H1118L399 1165H391L396 1100Q410 914 410 760V0H193V1462H483L1200 303H1206Q1204 326 1198 470T1192 696V1462H1411V0Z" />
<glyph unicode="O" glyph-name="O" horiz-adv-x="1612" d="M1491 733Q1491 376 1313 178T807 -20Q476 -20 299 176T121 735Q121 1097 299 1291T809 1485Q1135 1485 1313 1288T1491 733ZM375 733Q375 463 484 324T807 184Q1020 184 1128 322T1237 733Q1237 1002
1130 1141T809 1280Q594 1280 485 1141T375 733Z" />
<glyph unicode="P" glyph-name="P" horiz-adv-x="1260" d="M1161 1020Q1161 791 1011 669T584 547H432V0H193V1462H614Q888 1462 1024 1350T1161 1020ZM432 748H559Q743 748 829 812T915 1012Q915 1138 838 1200T598 1262H432V748Z" />
<glyph unicode="Q" glyph-name="Q" horiz-adv-x="1612" d="M1491 733Q1491 467 1390 285T1094 29L1444 -348H1122L846 -20H807Q476 -20 299 176T121 735Q121 1097 299 1291T809 1485Q1135 1485 1313 1288T1491 733ZM375 733Q375 463 484 324T807 184Q1020 184
1128 322T1237 733Q1237 1002 1130 1141T809 1280Q594 1280 485 1141T375 733Z" />
<glyph unicode="R" glyph-name="R" horiz-adv-x="1309" d="M432 782H598Q765 782 840 844T915 1028Q915 1152 834 1206T590 1260H432V782ZM432 584V0H193V1462H606Q889 1462 1025 1356T1161 1036Q1161 763 877 647L1290 0H1018L668 584H432Z" />
<glyph unicode="S" glyph-name="S" horiz-adv-x="1126" d="M1036 397Q1036 202 895 91T506 -20Q258 -20 100 57V283Q200 236 312 209T522 182Q664 182 731 236T799 381Q799 463 737 520T481 655Q281 736 199 840T117 1090Q117 1273 247 1378T596 1483Q806 1483
1014 1391L938 1196Q743 1278 590 1278Q474 1278 414 1228T354 1094Q354 1037 378 997T457 920T655 825Q816 758 891 700T1001 569T1036 397Z" />
<glyph unicode="T" glyph-name="T" horiz-adv-x="1159" d="M698 0H459V1257H29V1462H1128V1257H698V0Z" />
<glyph unicode="U" glyph-name="U" horiz-adv-x="1520" d="M1339 1462V516Q1339 354 1270 233T1069 46T754 -20Q482 -20 331 124T180 520V1462H420V537Q420 356 504 270T762 184Q1100 184 1100 539V1462H1339Z" />
<glyph unicode="V" glyph-name="V" horiz-adv-x="1274" d="M1026 1462H1274L762 0H510L0 1462H246L551 553Q575 488 602 386T637 233Q650 309 677 409T721 557L1026 1462Z" />
<glyph unicode="W" glyph-name="W" horiz-adv-x="1937" d="M1542 0H1282L1034 872Q1018 929 994 1036T965 1186Q955 1122 933 1020T895 868L653 0H393L204 732L12 1462H256L465 610Q514 405 535 248Q546 333 568 438T608 608L846 1462H1083L1327 604Q1362 485
1401 248Q1416 391 1473 612L1681 1462H1923L1542 0Z" />
<glyph unicode="X" glyph-name="X" horiz-adv-x="1274" d="M1270 0H995L629 598L260 0H4L489 758L35 1462H301L639 909L977 1462H1235L778 754L1270 0Z" />
<glyph unicode="Y" glyph-name="Y" horiz-adv-x="1212" d="M606 795L952 1462H1212L725 567V0H485V559L0 1462H260L606 795Z" />
<glyph unicode="Z" glyph-name="Z" horiz-adv-x="1178" d="M1112 0H66V166L803 1257H86V1462H1092V1294L352 205H1112V0Z" />
<glyph unicode="[" glyph-name="bracketleft" horiz-adv-x="676" d="M625 -324H154V1462H625V1286H369V-147H625V-324Z" />
<glyph unicode="\" glyph-name="backslash" horiz-adv-x="799" d="M238 1462L782 0H561L16 1462H238Z" />
<glyph unicode="]" glyph-name="bracketright" horiz-adv-x="676" d="M51 -147H307V1286H51V1462H520V-324H51V-147Z" />
<glyph unicode="^" glyph-name="asciicircum" horiz-adv-x="1100" d="M29 535L465 1470H586L1071 535H877L528 1229L221 535H29Z" />
<glyph unicode="_" glyph-name="underscore" horiz-adv-x="879" d="M883 -319H-4V-184H883V-319Z" />
<glyph unicode="`" glyph-name="grave" horiz-adv-x="1212" d="M690 1241Q621 1293 516 1391T362 1548V1569H635Q673 1499 738 1408T848 1266V1241H690Z" />
<glyph unicode="a" glyph-name="a" horiz-adv-x="1188" d="M860 0L813 154H805Q725 53 644 17T436 -20Q273 -20 182 68T90 317Q90 488 217 575T604 670L795 676V735Q795 841 746 893T592 946Q507 946 429 921T279 862L203 1030Q293 1077 400 1101T602 1126Q813
1126 920 1034T1028 745V0H860ZM510 160Q638 160 715 231T793 432V528L651 522Q485 516 410 467T334 315Q334 241 378 201T510 160Z" />
<glyph unicode="b" glyph-name="b" horiz-adv-x="1276" d="M733 1126Q940 1126 1055 976T1171 555Q1171 283 1054 132T729 -20Q519 -20 403 131H387L344 0H168V1556H403V1186Q403 1145 399 1064T393 961H403Q515 1126 733 1126ZM672 934Q530 934 468 851T403 571V555Q403
353 467 263T676 172Q801 172 865 271T930 557Q930 934 672 934Z" />
<glyph unicode="c" glyph-name="c" horiz-adv-x="1014" d="M614 -20Q363 -20 233 126T102 547Q102 826 238 976T633 1126Q808 1126 948 1061L877 872Q728 930 631 930Q344 930 344 549Q344 363 415 270T625 176Q782 176 922 254V49Q859 12 788 -4T614 -20Z" />
<glyph unicode="d" glyph-name="d" horiz-adv-x="1276" d="M541 -20Q334 -20 218 130T102 551Q102 823 219 974T545 1126Q763 1126 877 965H889Q872 1084 872 1153V1556H1108V0H924L883 145H872Q759 -20 541 -20ZM604 170Q749 170 815 251T883 516V549Q883 758
815 846T602 934Q478 934 411 834T344 547Q344 363 409 267T604 170Z" />
<glyph unicode="e" glyph-name="e" horiz-adv-x="1180" d="M651 -20Q393 -20 248 130T102 545Q102 816 237 971T608 1126Q827 1126 954 993T1081 627V500H344Q349 339 431 253T662 166Q760 166 844 184T1026 246V55Q940 14 852 -3T651 -20ZM608 948Q496 948 429
877T348 670H850Q848 807 784 877T608 948Z" />
<glyph unicode="f" glyph-name="f" horiz-adv-x="743" d="M723 928H453V0H217V928H35V1038L217 1110V1182Q217 1378 309 1472T590 1567Q714 1567 834 1526L772 1348Q685 1376 606 1376Q526 1376 490 1327T453 1178V1106H723V928Z" />
<glyph unicode="g" glyph-name="g" horiz-adv-x="1139" d="M1102 1106V977L913 942Q939 907 956 856T973 748Q973 577 855 479T530 381Q477 381 434 389Q358 342 358 279Q358 241 393 222T524 203H717Q900 203 995 125T1090 -100Q1090 -288 935 -390T487 -492Q261
-492 142 -412T23 -184Q23 -82 87 -13T268 84Q221 104 191 148T160 242Q160 304 195 347T299 432Q213 469 160 552T106 748Q106 928 219 1027T543 1126Q590 1126 641 1120T719 1106H1102ZM233 -172Q233 -248 301 -289T494 -330Q686 -330 780 -275T874 -129Q874
-57 823 -27T631 4H453Q352 4 293 -43T233 -172ZM334 748Q334 644 387 588T541 532Q745 532 745 750Q745 858 695 916T541 975Q439 975 387 917T334 748Z" />
<glyph unicode="h" glyph-name="h" horiz-adv-x="1300" d="M1141 0H905V680Q905 808 854 871T690 934Q542 934 473 846T403 549V0H168V1556H403V1161Q403 1066 391 958H406Q454 1038 539 1082T739 1126Q1141 1126 1141 721V0Z" />
<glyph unicode="i" glyph-name="i" horiz-adv-x="571" d="M403 0H168V1106H403V0ZM154 1399Q154 1462 188 1496T287 1530Q349 1530 383 1496T418 1399Q418 1339 384 1305T287 1270Q223 1270 189 1304T154 1399Z" />
<glyph unicode="j" glyph-name="j" horiz-adv-x="571" d="M55 -492Q-51 -492 -121 -467V-281Q-53 -299 18 -299Q168 -299 168 -129V1106H403V-145Q403 -316 314 -404T55 -492ZM154 1399Q154 1462 188 1496T287 1530Q349 1530 383 1496T418 1399Q418 1339 384 1305T287
1270Q223 1270 189 1304T154 1399Z" />
<glyph unicode="k" glyph-name="k" horiz-adv-x="1171" d="M395 584L528 750L862 1106H1133L688 631L1161 0H885L530 485L401 379V0H168V1556H401V797L389 584H395Z" />
<glyph unicode="l" glyph-name="l" horiz-adv-x="571" d="M403 0H168V1556H403V0Z" />
<glyph unicode="m" glyph-name="m" horiz-adv-x="1958" d="M1100 0H864V682Q864 809 816 871T666 934Q530 934 467 846T403 551V0H168V1106H352L385 961H397Q443 1040 530 1083T723 1126Q978 1126 1061 952H1077Q1126 1034 1215 1080T1419 1126Q1617 1126 1707
1026T1798 721V0H1563V682Q1563 809 1515 871T1364 934Q1227 934 1164 849T1100 586V0Z" />
<glyph unicode="n" glyph-name="n" horiz-adv-x="1300" d="M1141 0H905V680Q905 808 854 871T690 934Q541 934 472 846T403 551V0H168V1106H352L385 961H397Q447 1040 539 1083T743 1126Q1141 1126 1141 721V0Z" />
<glyph unicode="o" glyph-name="o" horiz-adv-x="1251" d="M1149 555Q1149 284 1010 132T623 -20Q468 -20 349 50T166 251T102 555Q102 824 240 975T629 1126Q869 1126 1009 972T1149 555ZM344 555Q344 172 627 172Q907 172 907 555Q907 934 625 934Q477 934 411
836T344 555Z" />
<glyph unicode="p" glyph-name="p" horiz-adv-x="1276" d="M729 -20Q519 -20 403 131H389Q403 -9 403 -39V-492H168V1106H358Q366 1075 391 958H403Q513 1126 733 1126Q940 1126 1055 976T1171 555Q1171 284 1054 132T729 -20ZM672 934Q532 934 468 852T403 590V555Q403
353 467 263T676 172Q798 172 864 272T930 557Q930 743 865 838T672 934Z" />
<glyph unicode="q" glyph-name="q" horiz-adv-x="1276" d="M606 168Q754 168 818 253T883 512V549Q883 754 817 844T602 934Q476 934 410 834T344 547Q344 168 606 168ZM539 -20Q334 -20 218 130T102 551Q102 821 220 973T545 1126Q649 1126 731 1088T879 961H887L913
1106H1108V-492H872V-23Q872 21 876 70T883 145H870Q766 -20 539 -20Z" />
<glyph unicode="r" glyph-name="r" horiz-adv-x="883" d="M729 1126Q800 1126 846 1116L823 897Q773 909 719 909Q578 909 491 817T403 578V0H168V1106H352L383 911H395Q450 1010 538 1068T729 1126Z" />
<glyph unicode="s" glyph-name="s" horiz-adv-x="997" d="M911 315Q911 153 793 67T455 -20Q234 -20 100 47V250Q295 160 463 160Q680 160 680 291Q680 333 656 361T577 419T424 487Q233 561 166 635T98 827Q98 969 212 1047T524 1126Q719 1126 893 1047L817 870Q638
944 516 944Q330 944 330 838Q330 786 378 750T590 651Q727 598 789 554T881 453T911 315Z" />
<glyph unicode="t" glyph-name="t" horiz-adv-x="805" d="M580 170Q666 170 752 197V20Q713 3 652 -8T524 -20Q190 -20 190 332V928H39V1032L201 1118L281 1352H426V1106H741V928H426V336Q426 251 468 211T580 170Z" />
<glyph unicode="u" glyph-name="u" horiz-adv-x="1300" d="M948 0L915 145H903Q854 68 764 24T557 -20Q356 -20 257 80T158 383V1106H395V424Q395 297 447 234T610 170Q758 170 827 258T897 555V1106H1133V0H948Z" />
<glyph unicode="v" glyph-name="v" horiz-adv-x="1096" d="M420 0L0 1106H248L473 463Q531 301 543 201H551Q560 273 621 463L846 1106H1096L674 0H420Z" />
<glyph unicode="w" glyph-name="w" horiz-adv-x="1673" d="M1075 0L932 516Q906 598 838 897H829Q771 627 737 514L590 0H330L20 1106H260L401 561Q449 359 469 215H475Q485 288 505 382T541 524L709 1106H967L1130 524Q1145 475 1167 374T1194 217H1202Q1217
340 1272 561L1415 1106H1651L1339 0H1075Z" />
<glyph unicode="x" glyph-name="x" horiz-adv-x="1128" d="M414 565L43 1106H311L563 719L817 1106H1083L711 565L1102 0H836L563 414L291 0H25L414 565Z" />
<glyph unicode="y" glyph-name="y" horiz-adv-x="1098" d="M0 1106H256L481 479Q532 345 549 227H557Q566 282 590 360T844 1106H1098L625 -147Q496 -492 195 -492Q117 -492 43 -475V-289Q96 -301 164 -301Q334 -301 403 -104L444 0L0 1106Z" />
<glyph unicode="z" glyph-name="z" horiz-adv-x="979" d="M907 0H68V145L627 926H102V1106H891V942L344 180H907V0Z" />
<glyph unicode="{" glyph-name="braceleft" horiz-adv-x="791" d="M311 287Q311 473 45 473V664Q180 664 245 709T311 848V1159Q311 1315 419 1388T745 1462V1280Q631 1275 580 1234T528 1110V813Q528 614 299 575V563Q528 527 528 326V27Q528 -55 579 -97T745
-141V-324Q514 -322 413 -246T311 2V287Z" />
<glyph unicode="|" glyph-name="bar" horiz-adv-x="1128" d="M473 1552H653V-481H473V1552Z" />
<glyph unicode="}" glyph-name="braceright" horiz-adv-x="760" d="M463 -20Q463 -176 364 -249T45 -324V-141Q140 -140 193 -103T246 27V289Q246 410 299 476T475 563V575Q246 614 246 813V1110Q246 1192 201 1233T45 1280V1462Q268 1462 365 1386T463 1135V848Q463
748 526 706T715 664V473Q592 473 528 431T463 287V-20Z" />
<glyph unicode="~" glyph-name="asciitilde" horiz-adv-x="1169" d="M330 692Q280 692 219 662T96 571V762Q195 870 346 870Q412 870 471 857T618 807Q749 752 838 752Q890 752 952 783T1073 872V682Q968 571 823 571Q758 571 696 586T549 637Q422 692 330 692Z" />
<glyph unicode="&#xa0;" glyph-name="nbspace" horiz-adv-x="532" />
<glyph unicode="&#xa1;" glyph-name="exclamdown" horiz-adv-x="565" d="M193 645H367L418 -371H141L193 645ZM430 965Q430 891 393 852T281 813Q209 813 171 852T133 965Q133 1034 171 1076T281 1118Q353 1118 391 1078T430 965Z" />
<glyph unicode="&#xa2;" glyph-name="cent" horiz-adv-x="1169" d="M987 238Q868 179 729 174V-20H573V180Q366 211 266 351T166 741Q166 995 266 1138T573 1313V1483H731V1321Q883 1316 1014 1255L944 1067Q798 1126 694 1126Q548 1126 478 1031T408 743Q408
549 480 460T690 371Q765 371 832 386T987 438V238Z" />
<glyph unicode="&#xa3;" glyph-name="sterling" horiz-adv-x="1169" d="M690 1481Q884 1481 1065 1399L989 1217Q827 1288 705 1288Q500 1288 500 1069V825H897V653H500V471Q500 380 467 316T354 207H1110V0H72V195Q170 225 217 291T264 469V653H76V825H264V1081Q264
1269 377 1375T690 1481Z" />
<glyph unicode="&#xa4;" glyph-name="currency" horiz-adv-x="1169" d="M186 723Q186 832 250 936L117 1069L238 1188L369 1059Q469 1122 584 1122Q699 1122 797 1057L930 1188L1051 1071L920 938Q983 838 983 723Q983 604 920 506L1049 377L930 258L797 387Q698
326 584 326Q458 326 369 387L238 260L119 379L250 508Q186 607 186 723ZM354 723Q354 625 422 559T584 492Q681 492 749 558T817 723Q817 820 749 888T584 956Q491 956 423 888T354 723Z" />
<glyph unicode="&#xa5;" glyph-name="yen" horiz-adv-x="1169" d="M584 797L905 1462H1149L750 702H977V551H696V397H977V244H696V0H471V244H188V397H471V551H188V702H412L18 1462H264L584 797Z" />
<glyph unicode="&#xa6;" glyph-name="brokenbar" horiz-adv-x="1128" d="M473 1552H653V758H473V1552ZM473 315H653V-481H473V315Z" />
<glyph unicode="&#xa7;" glyph-name="section" horiz-adv-x="1026" d="M129 807Q129 887 167 952T279 1061Q133 1144 133 1296Q133 1425 242 1498T537 1571Q628 1571 711 1554T893 1495L825 1333Q709 1383 649 1396T528 1409Q334 1409 334 1300Q334 1246 389 1207T580
1116Q755 1048 830 970T905 782Q905 605 766 516Q905 436 905 293Q905 151 787 69T461 -14Q249 -14 115 57V236Q192 196 288 171T465 145Q700 145 700 276Q700 319 679 346T608 400T461 465Q320 520 255 566T160 671T129 807ZM313 827Q313 782 337 747T415 678T610
588Q719 653 719 756Q719 831 657 882T436 987Q382 971 348 926T313 827Z" />
<glyph unicode="&#xa8;" glyph-name="dieresis" horiz-adv-x="1212" d="M293 1399Q293 1461 326 1488T408 1516Q461 1516 492 1485T524 1399Q524 1346 492 1314T408 1282Q360 1282 327 1311T293 1399ZM686 1399Q686 1461 719 1488T801 1516Q854 1516 886 1485T918
1399Q918 1345 885 1314T801 1282Q753 1282 720 1311T686 1399Z" />
<glyph unicode="&#xa9;" glyph-name="copyright" horiz-adv-x="1704" d="M893 1034Q782 1034 722 954T662 731Q662 584 716 505T893 426Q948 426 1011 441T1120 477V319Q1005 268 885 268Q688 268 580 388T471 731Q471 945 581 1068T887 1192Q1025 1192 1161 1122L1096
979Q990 1034 893 1034ZM100 731Q100 931 200 1106T475 1382T852 1483Q1052 1483 1227 1383T1503 1108T1604 731Q1604 534 1507 361T1235 84T852 -20Q645 -20 470 83T198 360T100 731ZM223 731Q223 561 307 416T538 186T852 102Q1022 102 1168 187T1397 417T1481
731Q1481 899 1397 1045T1166 1276T852 1360Q684 1360 540 1277T309 1048T223 731Z" />
<glyph unicode="&#xaa;" glyph-name="ordfeminine" horiz-adv-x="754" d="M547 782L518 879Q472 824 413 797T283 770Q170 770 114 822T57 981Q57 1085 141 1140T393 1202L500 1206Q500 1278 466 1314T362 1350Q272 1350 152 1294L98 1409Q242 1479 383 1479Q521
1479 590 1417T659 1229V782H547ZM401 1098Q330 1096 276 1064T221 983Q221 895 317 895Q408 895 454 936T500 1059V1102L401 1098Z" />
<glyph unicode="&#xab;" glyph-name="guillemotleft" horiz-adv-x="1139" d="M82 561L438 993L606 899L324 549L606 201L438 104L82 535V561ZM532 561L889 993L1057 899L774 549L1057 201L889 104L532 535V561Z" />
<glyph unicode="&#xac;" glyph-name="logicalnot" horiz-adv-x="1169" d="M1073 256H895V633H96V811H1073V256Z" />
<glyph unicode="&#xad;" glyph-name="uni00AD" horiz-adv-x="659" d="M72 449V649H586V449H72Z" />
<glyph unicode="&#xae;" glyph-name="registered" horiz-adv-x="1704" d="M748 770H817Q891 770 929 805T967 905Q967 977 931 1005T815 1034H748V770ZM1157 909Q1157 738 1004 676L1241 279H1030L838 625H748V279H559V1182H821Q995 1182 1076 1114T1157 909ZM100
731Q100 931 200 1106T475 1382T852 1483Q1052 1483 1227 1383T1503 1108T1604 731Q1604 534 1507 361T1235 84T852 -20Q645 -20 470 83T198 360T100 731ZM223 731Q223 561 307 416T538 186T852 102Q1022 102 1168 187T1397 417T1481 731Q1481 899 1397 1045T1166
1276T852 1360Q684 1360 540 1277T309 1048T223 731Z" />
<glyph unicode="&#xaf;" glyph-name="overscore" horiz-adv-x="1024" d="M1030 1556H-6V1720H1030V1556Z" />
<glyph unicode="&#xb0;" glyph-name="degree" horiz-adv-x="877" d="M109 1153Q109 1288 204 1385T438 1483Q576 1483 671 1387T766 1153Q766 1014 670 920T438 825Q350 825 274 868T153 988T109 1153ZM262 1153Q262 1083 313 1031T438 979Q512 979 563 1030T614
1153Q614 1229 562 1280T438 1331Q366 1331 314 1279T262 1153Z" />
<glyph unicode="&#xb1;" glyph-name="plusminus" horiz-adv-x="1169" d="M494 664H96V842H494V1249H674V842H1073V664H674V258H494V664ZM96 0V178H1073V0H96Z" />
<glyph unicode="&#xb2;" glyph-name="twosuperior" horiz-adv-x="743" d="M678 586H51V721L281 946Q398 1058 430 1111T463 1223Q463 1275 431 1302T348 1329Q255 1329 147 1241L53 1362Q192 1481 362 1481Q498 1481 573 1415T649 1235Q649 1152 603 1077T420
874L281 745H678V586Z" />
<glyph unicode="&#xb3;" glyph-name="threesuperior" horiz-adv-x="743" d="M645 1251Q645 1176 605 1129T485 1042Q579 1021 626 966T674 834Q674 707 581 638T315 569Q167 569 45 631V788Q190 709 315 709Q494 709 494 844Q494 969 295 969H180V1102H285Q469
1102 469 1231Q469 1283 435 1311T344 1339Q287 1339 239 1319T133 1262L49 1376Q110 1422 183 1451T354 1481Q488 1481 566 1420T645 1251Z" />
<glyph unicode="&#xb4;" glyph-name="acute" horiz-adv-x="1212" d="M362 1241V1266Q419 1336 479 1422T575 1569H848V1548Q796 1487 693 1391T518 1241H362Z" />
<glyph unicode="&#xb5;" glyph-name="mu" horiz-adv-x="1309" d="M403 422Q403 170 621 170Q767 170 836 258T905 555V1106H1141V0H958L924 147H911Q863 64 792 22T616 -20Q476 -20 397 70H393Q396 42 399 -47T403 -172V-492H168V1106H403V422Z" />
<glyph unicode="&#xb6;" glyph-name="paragraph" horiz-adv-x="1341" d="M1143 -260H1006V1403H815V-260H678V559Q616 541 532 541Q316 541 215 666T113 1042Q113 1302 222 1429T563 1556H1143V-260Z" />
<glyph unicode="&#xb7;" glyph-name="middot" horiz-adv-x="563" d="M133 723Q133 796 171 835T281 874Q354 874 392 834T430 723Q430 652 392 611T281 569Q209 569 171 610T133 723Z" />
<glyph unicode="&#xb8;" glyph-name="cedilla" horiz-adv-x="442" d="M426 -270Q426 -492 121 -492Q55 -492 0 -477V-340Q54 -354 123 -354Q177 -354 208 -338T240 -276Q240 -191 61 -166L145 0H297L256 -88Q336 -109 381 -156T426 -270Z" />
<glyph unicode="&#xb9;" glyph-name="onesuperior" horiz-adv-x="743" d="M532 586H346V1098L349 1201L354 1292Q337 1274 314 1252T172 1141L84 1253L365 1462H532V586Z" />
<glyph unicode="&#xba;" glyph-name="ordmasculine" horiz-adv-x="780" d="M719 1124Q719 960 632 865T387 770Q237 770 149 865T61 1124Q61 1293 149 1386T391 1479Q543 1479 631 1385T719 1124ZM223 1124Q223 1013 262 958T389 903Q477 903 516 958T555 1124Q555
1237 516 1291T389 1346Q301 1346 262 1292T223 1124Z" />
<glyph unicode="&#xbb;" glyph-name="guillemotright" horiz-adv-x="1139" d="M1057 535L698 104L530 201L813 549L530 899L698 993L1057 561V535ZM606 535L248 104L80 201L362 549L80 899L248 993L606 561V535Z" />
<glyph unicode="&#xbc;" glyph-name="onequarter" horiz-adv-x="1700" d="M1333 1462L477 0H285L1143 1462H1333ZM764 586H578V1098L581 1201L586 1292Q569 1274 546 1252T404 1141L316 1253L597 1462H764V586ZM1585 177H1460V1H1268V177H876V304L1272 883H1460V320H1585V177ZM1268
320V498Q1268 595 1274 695Q1222 591 1186 537L1038 320H1268Z" />
<glyph unicode="&#xbd;" glyph-name="onehalf" horiz-adv-x="1700" d="M1298 1462L442 0H250L1108 1462H1298ZM750 586H564V1098L567 1201L572 1292Q555 1274 532 1252T390 1141L302 1253L583 1462H750V586ZM1608 1H981V136L1211 361Q1328 473 1360 526T1393 638Q1393
690 1361 717T1278 744Q1185 744 1077 656L983 777Q1122 896 1292 896Q1428 896 1503 830T1579 650Q1579 567 1533 492T1350 289L1211 160H1608V1Z" />
<glyph unicode="&#xbe;" glyph-name="threequarters" horiz-adv-x="1700" d="M1415 1462L559 0H367L1225 1462H1415ZM1640 177H1515V1H1323V177H931V304L1327 883H1515V320H1640V177ZM1323 320V498Q1323 595 1329 695Q1277 591 1241 537L1093 320H1323ZM655 1251Q655
1176 615 1129T495 1042Q589 1021 636 966T684 834Q684 707 591 638T325 569Q177 569 55 631V788Q200 709 325 709Q504 709 504 844Q504 969 305 969H190V1102H295Q479 1102 479 1231Q479 1283 445 1311T354 1339Q297 1339 249 1319T143 1262L59 1376Q120 1422
193 1451T364 1481Q498 1481 576 1420T655 1251Z" />
<glyph unicode="&#xbf;" glyph-name="questiondown" horiz-adv-x="928" d="M651 645V582Q651 476 610 401T467 246Q343 148 312 99T281 -25Q281 -103 335 -150T496 -197Q586 -197 670 -170T836 -104L918 -283Q698 -393 494 -393Q287 -393 171 -298T55 -33Q55 40
76 97T140 206T297 348Q391 424 422 472T453 600V645H651ZM692 965Q692 891 655 852T543 813Q471 813 433 852T395 965Q395 1034 433 1076T543 1118Q615 1118 653 1078T692 965Z" />
<glyph unicode="&#xc0;" glyph-name="Agrave" horiz-adv-x="1354" d="M1100 0L954 406H395L252 0H0L547 1468H807L1354 0H1100ZM891 612L754 1010Q739 1050 713 1136T676 1262Q649 1139 597 993L465 612H891ZM662 1579Q593 1631 488 1729T334 1886V1907H607Q645
1837 710 1746T820 1604V1579H662Z" />
<glyph unicode="&#xc1;" glyph-name="Aacute" horiz-adv-x="1354" d="M1100 0L954 406H395L252 0H0L547 1468H807L1354 0H1100ZM891 612L754 1010Q739 1050 713 1136T676 1262Q649 1139 597 993L465 612H891ZM532 1579V1604Q589 1674 649 1760T745 1907H1018V1886Q966
1825 863 1729T688 1579H532Z" />
<glyph unicode="&#xc2;" glyph-name="Acircumflex" horiz-adv-x="1354" d="M1100 0L954 406H395L252 0H0L547 1468H807L1354 0H1100ZM891 612L754 1010Q739 1050 713 1136T676 1262Q649 1139 597 993L465 612H891ZM897 1579Q774 1652 669 1759Q566 1656 444 1579H286V1604Q477
1802 540 1907H800Q863 1797 1056 1604V1579H897Z" />
<glyph unicode="&#xc3;" glyph-name="Atilde" horiz-adv-x="1354" d="M1100 0L954 406H395L252 0H0L547 1468H807L1354 0H1100ZM891 612L754 1010Q739 1050 713 1136T676 1262Q649 1139 597 993L465 612H891ZM821 1579Q779 1579 739 1596T659 1635T583 1674T512
1692Q431 1692 403 1577H281Q293 1716 358 1789T526 1862Q569 1862 610 1845T690 1806T765 1767T836 1749Q915 1749 942 1864H1067Q1055 1730 990 1655T821 1579Z" />
<glyph unicode="&#xc4;" glyph-name="Adieresis" horiz-adv-x="1354" d="M1100 0L954 406H395L252 0H0L547 1468H807L1354 0H1100ZM891 612L754 1010Q739 1050 713 1136T676 1262Q649 1139 597 993L465 612H891ZM363 1737Q363 1799 396 1826T478 1854Q531 1854
562 1823T594 1737Q594 1684 562 1652T478 1620Q430 1620 397 1649T363 1737ZM756 1737Q756 1799 789 1826T871 1854Q924 1854 956 1823T988 1737Q988 1683 955 1652T871 1620Q823 1620 790 1649T756 1737Z" />
<glyph unicode="&#xc5;" glyph-name="Aring" horiz-adv-x="1354" d="M1100 0L954 406H395L252 0H0L547 1468H807L1354 0H1100ZM891 612L754 1010Q739 1050 713 1136T676 1262Q649 1139 597 993L465 612H891ZM913 1577Q913 1475 848 1412T674 1348Q566 1348 502
1410T438 1575Q438 1676 501 1738T674 1801Q778 1801 845 1739T913 1577ZM780 1575Q780 1625 750 1653T674 1682Q627 1682 597 1654T567 1575Q567 1469 674 1469Q720 1469 750 1496T780 1575Z" />
<glyph unicode="&#xc6;" glyph-name="AE" horiz-adv-x="1868" d="M1747 0H936V406H432L244 0H-2L676 1462H1747V1260H1176V862H1708V662H1176V203H1747V0ZM522 612H936V1253H813L522 612Z" />
<glyph unicode="&#xc7;" glyph-name="Ccedilla" horiz-adv-x="1298" d="M815 1278Q609 1278 491 1132T373 729Q373 460 486 322T815 184Q908 184 995 202T1176 250V45Q1004 -20 786 -20Q465 -20 293 174T121 731Q121 959 204 1130T446 1392T817 1483Q1041 1483
1231 1389L1145 1190Q1071 1225 989 1251T815 1278ZM952 -270Q952 -492 647 -492Q581 -492 526 -477V-340Q580 -354 649 -354Q703 -354 734 -338T766 -276Q766 -191 587 -166L671 0H823L782 -88Q862 -109 907 -156T952 -270Z" />
<glyph unicode="&#xc8;" glyph-name="Egrave" horiz-adv-x="1143" d="M1020 0H193V1462H1020V1260H432V862H983V662H432V203H1020V0ZM617 1579Q548 1631 443 1729T289 1886V1907H562Q600 1837 665 1746T775 1604V1579H617Z" />
<glyph unicode="&#xc9;" glyph-name="Eacute" horiz-adv-x="1143" d="M1020 0H193V1462H1020V1260H432V862H983V662H432V203H1020V0ZM440 1579V1604Q497 1674 557 1760T653 1907H926V1886Q874 1825 771 1729T596 1579H440Z" />
<glyph unicode="&#xca;" glyph-name="Ecircumflex" horiz-adv-x="1143" d="M1020 0H193V1462H1020V1260H432V862H983V662H432V203H1020V0ZM831 1579Q708 1652 603 1759Q500 1656 378 1579H220V1604Q411 1802 474 1907H734Q797 1797 990 1604V1579H831Z" />
<glyph unicode="&#xcb;" glyph-name="Edieresis" horiz-adv-x="1143" d="M1020 0H193V1462H1020V1260H432V862H983V662H432V203H1020V0ZM297 1737Q297 1799 330 1826T412 1854Q465 1854 496 1823T528 1737Q528 1684 496 1652T412 1620Q364 1620 331 1649T297 1737ZM690
1737Q690 1799 723 1826T805 1854Q858 1854 890 1823T922 1737Q922 1683 889 1652T805 1620Q757 1620 724 1649T690 1737Z" />
<glyph unicode="&#xcc;" glyph-name="Igrave" horiz-adv-x="625" d="M193 0V1462H432V0H193ZM322 1579Q253 1631 148 1729T-6 1886V1907H267Q305 1837 370 1746T480 1604V1579H322Z" />
<glyph unicode="&#xcd;" glyph-name="Iacute" horiz-adv-x="625" d="M193 0V1462H432V0H193ZM179 1579V1604Q236 1674 296 1760T392 1907H665V1886Q613 1825 510 1729T335 1579H179Z" />
<glyph unicode="&#xce;" glyph-name="Icircumflex" horiz-adv-x="625" d="M193 0V1462H432V0H193ZM536 1579Q413 1652 308 1759Q205 1656 83 1579H-75V1604Q116 1802 179 1907H439Q502 1797 695 1604V1579H536Z" />
<glyph unicode="&#xcf;" glyph-name="Idieresis" horiz-adv-x="625" d="M193 0V1462H432V0H193ZM1 1737Q1 1799 34 1826T116 1854Q169 1854 200 1823T232 1737Q232 1684 200 1652T116 1620Q68 1620 35 1649T1 1737ZM394 1737Q394 1799 427 1826T509 1854Q562 1854
594 1823T626 1737Q626 1683 593 1652T509 1620Q461 1620 428 1649T394 1737Z" />
<glyph unicode="&#xd0;" glyph-name="Eth" horiz-adv-x="1497" d="M1374 745Q1374 385 1173 193T594 0H193V623H47V823H193V1462H639Q986 1462 1180 1274T1374 745ZM1122 737Q1122 997 998 1129T629 1262H432V823H739V623H432V201H592Q1122 201 1122 737Z" />
<glyph unicode="&#xd1;" glyph-name="Ntilde" horiz-adv-x="1604" d="M1411 0H1118L399 1165H391L396 1100Q410 914 410 760V0H193V1462H483L1200 303H1206Q1204 326 1198 470T1192 696V1462H1411V0ZM954 1579Q912 1579 872 1596T792 1635T716 1674T645 1692Q564
1692 536 1577H414Q426 1716 491 1789T659 1862Q702 1862 743 1845T823 1806T898 1767T969 1749Q1048 1749 1075 1864H1200Q1188 1730 1123 1655T954 1579Z" />
<glyph unicode="&#xd2;" glyph-name="Ograve" horiz-adv-x="1612" d="M1491 733Q1491 376 1313 178T807 -20Q476 -20 299 176T121 735Q121 1097 299 1291T809 1485Q1135 1485 1313 1288T1491 733ZM375 733Q375 463 484 324T807 184Q1020 184 1128 322T1237 733Q1237
1002 1130 1141T809 1280Q594 1280 485 1141T375 733ZM809 1579Q740 1631 635 1729T481 1886V1907H754Q792 1837 857 1746T967 1604V1579H809Z" />
<glyph unicode="&#xd3;" glyph-name="Oacute" horiz-adv-x="1612" d="M1491 733Q1491 376 1313 178T807 -20Q476 -20 299 176T121 735Q121 1097 299 1291T809 1485Q1135 1485 1313 1288T1491 733ZM375 733Q375 463 484 324T807 184Q1020 184 1128 322T1237 733Q1237
1002 1130 1141T809 1280Q594 1280 485 1141T375 733ZM657 1579V1604Q714 1674 774 1760T870 1907H1143V1886Q1091 1825 988 1729T813 1579H657Z" />
<glyph unicode="&#xd4;" glyph-name="Ocircumflex" horiz-adv-x="1612" d="M1491 733Q1491 376 1313 178T807 -20Q476 -20 299 176T121 735Q121 1097 299 1291T809 1485Q1135 1485 1313 1288T1491 733ZM375 733Q375 463 484 324T807 184Q1020 184 1128 322T1237
733Q1237 1002 1130 1141T809 1280Q594 1280 485 1141T375 733ZM1024 1579Q901 1652 796 1759Q693 1656 571 1579H413V1604Q604 1802 667 1907H927Q990 1797 1183 1604V1579H1024Z" />
<glyph unicode="&#xd5;" glyph-name="Otilde" horiz-adv-x="1612" d="M1491 733Q1491 376 1313 178T807 -20Q476 -20 299 176T121 735Q121 1097 299 1291T809 1485Q1135 1485 1313 1288T1491 733ZM375 733Q375 463 484 324T807 184Q1020 184 1128 322T1237 733Q1237
1002 1130 1141T809 1280Q594 1280 485 1141T375 733ZM950 1579Q908 1579 868 1596T788 1635T712 1674T641 1692Q560 1692 532 1577H410Q422 1716 487 1789T655 1862Q698 1862 739 1845T819 1806T894 1767T965 1749Q1044 1749 1071 1864H1196Q1184 1730 1119 1655T950
1579Z" />
<glyph unicode="&#xd6;" glyph-name="Odieresis" horiz-adv-x="1612" d="M1491 733Q1491 376 1313 178T807 -20Q476 -20 299 176T121 735Q121 1097 299 1291T809 1485Q1135 1485 1313 1288T1491 733ZM375 733Q375 463 484 324T807 184Q1020 184 1128 322T1237
733Q1237 1002 1130 1141T809 1280Q594 1280 485 1141T375 733ZM496 1737Q496 1799 529 1826T611 1854Q664 1854 695 1823T727 1737Q727 1684 695 1652T611 1620Q563 1620 530 1649T496 1737ZM889 1737Q889 1799 922 1826T1004 1854Q1057 1854 1089 1823T1121 1737Q1121
1683 1088 1652T1004 1620Q956 1620 923 1649T889 1737Z" />
<glyph unicode="&#xd7;" glyph-name="multiply" horiz-adv-x="1169" d="M457 723L131 1049L256 1176L584 850L913 1176L1038 1053L709 723L1034 395L911 270L582 596L258 270L133 395L457 723Z" />
<glyph unicode="&#xd8;" glyph-name="Oslash" horiz-adv-x="1612" d="M1491 733Q1491 376 1313 178T807 -20Q594 -20 446 61L352 -76L211 18L309 162Q121 358 121 735Q121 1097 299 1291T809 1485Q1008 1485 1163 1403L1253 1532L1395 1440L1296 1300Q1491 1101
1491 733ZM1237 733Q1237 958 1157 1094L571 244Q668 184 807 184Q1020 184 1128 322T1237 733ZM375 733Q375 502 453 371L1040 1221Q948 1280 809 1280Q594 1280 485 1141T375 733Z" />
<glyph unicode="&#xd9;" glyph-name="Ugrave" horiz-adv-x="1520" d="M1339 1462V516Q1339 354 1270 233T1069 46T754 -20Q482 -20 331 124T180 520V1462H420V537Q420 356 504 270T762 184Q1100 184 1100 539V1462H1339ZM745 1579Q676 1631 571 1729T417 1886V1907H690Q728
1837 793 1746T903 1604V1579H745Z" />
<glyph unicode="&#xda;" glyph-name="Uacute" horiz-adv-x="1520" d="M1339 1462V516Q1339 354 1270 233T1069 46T754 -20Q482 -20 331 124T180 520V1462H420V537Q420 356 504 270T762 184Q1100 184 1100 539V1462H1339ZM600 1579V1604Q657 1674 717 1760T813
1907H1086V1886Q1034 1825 931 1729T756 1579H600Z" />
<glyph unicode="&#xdb;" glyph-name="Ucircumflex" horiz-adv-x="1520" d="M1339 1462V516Q1339 354 1270 233T1069 46T754 -20Q482 -20 331 124T180 520V1462H420V537Q420 356 504 270T762 184Q1100 184 1100 539V1462H1339ZM977 1579Q854 1652 749 1759Q646
1656 524 1579H366V1604Q557 1802 620 1907H880Q943 1797 1136 1604V1579H977Z" />
<glyph unicode="&#xdc;" glyph-name="Udieresis" horiz-adv-x="1520" d="M1339 1462V516Q1339 354 1270 233T1069 46T754 -20Q482 -20 331 124T180 520V1462H420V537Q420 356 504 270T762 184Q1100 184 1100 539V1462H1339ZM445 1737Q445 1799 478 1826T560 1854Q613
1854 644 1823T676 1737Q676 1684 644 1652T560 1620Q512 1620 479 1649T445 1737ZM838 1737Q838 1799 871 1826T953 1854Q1006 1854 1038 1823T1070 1737Q1070 1683 1037 1652T953 1620Q905 1620 872 1649T838 1737Z" />
<glyph unicode="&#xdd;" glyph-name="Yacute" horiz-adv-x="1212" d="M606 795L952 1462H1212L725 567V0H485V559L0 1462H260L606 795ZM450 1579V1604Q507 1674 567 1760T663 1907H936V1886Q884 1825 781 1729T606 1579H450Z" />
<glyph unicode="&#xde;" glyph-name="Thorn" horiz-adv-x="1268" d="M1169 776Q1169 549 1023 427T600 305H432V0H193V1462H432V1219H629Q897 1219 1033 1107T1169 776ZM432 504H565Q752 504 838 567T924 770Q924 897 846 958T596 1020H432V504Z" />
<glyph unicode="&#xdf;" glyph-name="germandbls" horiz-adv-x="1364" d="M1149 1253Q1149 1179 1111 1113T1006 995Q916 926 889 897T862 840Q862 810 884 785T964 721L1059 657Q1151 595 1194 548T1260 444T1282 317Q1282 152 1175 66T864 -20Q674 -20 565 45V244Q623
207 704 183T852 158Q1044 158 1044 309Q1044 370 1010 414T854 532Q735 605 683 667T631 813Q631 876 665 928T770 1034Q845 1089 877 1131T909 1225Q909 1297 842 1337T664 1378Q537 1378 470 1324T403 1165V0H168V1169Q168 1362 296 1464T664 1567Q889 1567
1019 1483T1149 1253Z" />
<glyph unicode="&#xe0;" glyph-name="agrave" horiz-adv-x="1188" d="M860 0L813 154H805Q725 53 644 17T436 -20Q273 -20 182 68T90 317Q90 488 217 575T604 670L795 676V735Q795 841 746 893T592 946Q507 946 429 921T279 862L203 1030Q293 1077 400 1101T602
1126Q813 1126 920 1034T1028 745V0H860ZM510 160Q638 160 715 231T793 432V528L651 522Q485 516 410 467T334 315Q334 241 378 201T510 160ZM843 1241Q774 1293 669 1391T515 1548V1569H788Q826 1499 891 1408T1001 1266V1241H843Z" />
<glyph unicode="&#xe1;" glyph-name="aacute" horiz-adv-x="1188" d="M860 0L813 154H805Q725 53 644 17T436 -20Q273 -20 182 68T90 317Q90 488 217 575T604 670L795 676V735Q795 841 746 893T592 946Q507 946 429 921T279 862L203 1030Q293 1077 400 1101T602
1126Q813 1126 920 1034T1028 745V0H860ZM510 160Q638 160 715 231T793 432V528L651 522Q485 516 410 467T334 315Q334 241 378 201T510 160ZM438 1241V1266Q495 1336 555 1422T651 1569H924V1548Q872 1487 769 1391T594 1241H438Z" />
<glyph unicode="&#xe2;" glyph-name="acircumflex" horiz-adv-x="1188" d="M860 0L813 154H805Q725 53 644 17T436 -20Q273 -20 182 68T90 317Q90 488 217 575T604 670L795 676V735Q795 841 746 893T592 946Q507 946 429 921T279 862L203 1030Q293 1077 400 1101T602
1126Q813 1126 920 1034T1028 745V0H860ZM510 160Q638 160 715 231T793 432V528L651 522Q485 516 410 467T334 315Q334 241 378 201T510 160ZM1070 1241Q947 1314 842 1421Q739 1318 617 1241H459V1266Q650 1464 713 1569H973Q1036 1459 1229 1266V1241H1070Z"
/>
<glyph unicode="&#xe3;" glyph-name="atilde" horiz-adv-x="1188" d="M860 0L813 154H805Q725 53 644 17T436 -20Q273 -20 182 68T90 317Q90 488 217 575T604 670L795 676V735Q795 841 746 893T592 946Q507 946 429 921T279 862L203 1030Q293 1077 400 1101T602
1126Q813 1126 920 1034T1028 745V0H860ZM510 160Q638 160 715 231T793 432V528L651 522Q485 516 410 467T334 315Q334 241 378 201T510 160ZM1004 1241Q962 1241 922 1258T842 1297T766 1336T695 1354Q614 1354 586 1239H464Q476 1378 541 1451T709 1524Q752 1524
793 1507T873 1468T948 1429T1019 1411Q1098 1411 1125 1526H1250Q1238 1392 1173 1317T1004 1241Z" />
<glyph unicode="&#xe4;" glyph-name="adieresis" horiz-adv-x="1188" d="M860 0L813 154H805Q725 53 644 17T436 -20Q273 -20 182 68T90 317Q90 488 217 575T604 670L795 676V735Q795 841 746 893T592 946Q507 946 429 921T279 862L203 1030Q293 1077 400 1101T602
1126Q813 1126 920 1034T1028 745V0H860ZM510 160Q638 160 715 231T793 432V528L651 522Q485 516 410 467T334 315Q334 241 378 201T510 160ZM538 1399Q538 1461 571 1488T653 1516Q706 1516 737 1485T769 1399Q769 1346 737 1314T653 1282Q605 1282 572 1311T538
1399ZM931 1399Q931 1461 964 1488T1046 1516Q1099 1516 1131 1485T1163 1399Q1163 1345 1130 1314T1046 1282Q998 1282 965 1311T931 1399Z" />
<glyph unicode="&#xe5;" glyph-name="aring" horiz-adv-x="1188" d="M860 0L813 154H805Q725 53 644 17T436 -20Q273 -20 182 68T90 317Q90 488 217 575T604 670L795 676V735Q795 841 746 893T592 946Q507 946 429 921T279 862L203 1030Q293 1077 400 1101T602
1126Q813 1126 920 1034T1028 745V0H860ZM510 160Q638 160 715 231T793 432V528L651 522Q485 516 410 467T334 315Q334 241 378 201T510 160ZM841 1468Q841 1366 776 1303T602 1239Q494 1239 430 1301T366 1466Q366 1567 429 1629T602 1692Q706 1692 773 1630T841
1468ZM708 1466Q708 1516 678 1544T602 1573Q555 1573 525 1545T495 1466Q495 1360 602 1360Q648 1360 678 1387T708 1466Z" />
<glyph unicode="&#xe6;" glyph-name="ae" horiz-adv-x="1817" d="M90 317Q90 489 211 575T582 670L770 676V752Q770 946 569 946Q428 946 262 864L188 1030Q276 1077 380 1101T584 1126Q825 1126 924 971Q1044 1126 1270 1126Q1476 1126 1598 992T1720 629V502H1008Q1018
166 1309 166Q1493 166 1665 246V55Q1579 14 1494 -3T1298 -20Q1158 -20 1050 34T874 199Q780 74 684 27T442 -20Q277 -20 184 70T90 317ZM334 315Q334 160 500 160Q624 160 696 232T768 432V528L633 522Q478 516 406 468T334 315ZM1266 948Q1154 948 1089 879T1014
670H1487Q1487 800 1429 874T1266 948Z" />
<glyph unicode="&#xe7;" glyph-name="ccedilla" horiz-adv-x="1014" d="M614 -20Q363 -20 233 126T102 547Q102 826 238 976T633 1126Q808 1126 948 1061L877 872Q728 930 631 930Q344 930 344 549Q344 363 415 270T625 176Q782 176 922 254V49Q859 12 788 -4T614
-20ZM782 -270Q782 -492 477 -492Q411 -492 356 -477V-340Q410 -354 479 -354Q533 -354 564 -338T596 -276Q596 -191 417 -166L501 0H653L612 -88Q692 -109 737 -156T782 -270Z" />
<glyph unicode="&#xe8;" glyph-name="egrave" horiz-adv-x="1180" d="M651 -20Q393 -20 248 130T102 545Q102 816 237 971T608 1126Q827 1126 954 993T1081 627V500H344Q349 339 431 253T662 166Q760 166 844 184T1026 246V55Q940 14 852 -3T651 -20ZM608 948Q496
948 429 877T348 670H850Q848 807 784 877T608 948ZM865 1241Q796 1293 691 1391T537 1548V1569H810Q848 1499 913 1408T1023 1266V1241H865Z" />
<glyph unicode="&#xe9;" glyph-name="eacute" horiz-adv-x="1180" d="M651 -20Q393 -20 248 130T102 545Q102 816 237 971T608 1126Q827 1126 954 993T1081 627V500H344Q349 339 431 253T662 166Q760 166 844 184T1026 246V55Q940 14 852 -3T651 -20ZM608 948Q496
948 429 877T348 670H850Q848 807 784 877T608 948ZM458 1241V1266Q515 1336 575 1422T671 1569H944V1548Q892 1487 789 1391T614 1241H458Z" />
<glyph unicode="&#xea;" glyph-name="ecircumflex" horiz-adv-x="1180" d="M651 -20Q393 -20 248 130T102 545Q102 816 237 971T608 1126Q827 1126 954 993T1081 627V500H344Q349 339 431 253T662 166Q760 166 844 184T1026 246V55Q940 14 852 -3T651 -20ZM608
948Q496 948 429 877T348 670H850Q848 807 784 877T608 948ZM838 1241Q715 1314 610 1421Q507 1318 385 1241H227V1266Q418 1464 481 1569H741Q804 1459 997 1266V1241H838Z" />
<glyph unicode="&#xeb;" glyph-name="edieresis" horiz-adv-x="1180" d="M651 -20Q393 -20 248 130T102 545Q102 816 237 971T608 1126Q827 1126 954 993T1081 627V500H344Q349 339 431 253T662 166Q760 166 844 184T1026 246V55Q940 14 852 -3T651 -20ZM608 948Q496
948 429 877T348 670H850Q848 807 784 877T608 948ZM307 1399Q307 1461 340 1488T422 1516Q475 1516 506 1485T538 1399Q538 1346 506 1314T422 1282Q374 1282 341 1311T307 1399ZM700 1399Q700 1461 733 1488T815 1516Q868 1516 900 1485T932 1399Q932 1345 899
1314T815 1282Q767 1282 734 1311T700 1399Z" />
<glyph unicode="&#xec;" glyph-name="igrave" horiz-adv-x="571" d="M403 0H168V1106H403V0ZM259 1241Q190 1293 85 1391T-69 1548V1569H204Q242 1499 307 1408T417 1266V1241H259Z" />
<glyph unicode="&#xed;" glyph-name="iacute" horiz-adv-x="571" d="M403 0H168V1106H403V0ZM156 1241V1266Q213 1336 273 1422T369 1569H642V1548Q590 1487 487 1391T312 1241H156Z" />
<glyph unicode="&#xee;" glyph-name="icircumflex" horiz-adv-x="571" d="M403 0H168V1106H403V0ZM511 1241Q388 1314 283 1421Q180 1318 58 1241H-100V1266Q91 1464 154 1569H414Q477 1459 670 1266V1241H511Z" />
<glyph unicode="&#xef;" glyph-name="idieresis" horiz-adv-x="571" d="M403 0H168V1106H403V0ZM-25 1399Q-25 1461 8 1488T90 1516Q143 1516 174 1485T206 1399Q206 1346 174 1314T90 1282Q42 1282 9 1311T-25 1399ZM368 1399Q368 1461 401 1488T483 1516Q536
1516 568 1485T600 1399Q600 1345 567 1314T483 1282Q435 1282 402 1311T368 1399Z" />
<glyph unicode="&#xf0;" glyph-name="eth" horiz-adv-x="1243" d="M1149 567Q1149 288 1012 134T623 -20Q388 -20 245 116T102 481Q102 712 233 846T584 981Q798 981 885 870L893 874Q831 1063 666 1219L416 1069L328 1202L532 1321Q446 1380 365 1423L449 1569Q589
1506 707 1425L938 1563L1026 1434L838 1321Q990 1181 1069 991T1149 567ZM909 522Q909 649 834 724T627 799Q476 799 409 717T342 477Q342 324 416 243T627 162Q775 162 842 253T909 522Z" />
<glyph unicode="&#xf1;" glyph-name="ntilde" horiz-adv-x="1300" d="M1141 0H905V680Q905 808 854 871T690 934Q541 934 472 846T403 551V0H168V1106H352L385 961H397Q447 1040 539 1083T743 1126Q1141 1126 1141 721V0ZM809 1241Q767 1241 727 1258T647 1297T571
1336T500 1354Q419 1354 391 1239H269Q281 1378 346 1451T514 1524Q557 1524 598 1507T678 1468T753 1429T824 1411Q903 1411 930 1526H1055Q1043 1392 978 1317T809 1241Z" />
<glyph unicode="&#xf2;" glyph-name="ograve" horiz-adv-x="1251" d="M1149 555Q1149 284 1010 132T623 -20Q468 -20 349 50T166 251T102 555Q102 824 240 975T629 1126Q869 1126 1009 972T1149 555ZM344 555Q344 172 627 172Q907 172 907 555Q907 934 625 934Q477
934 411 836T344 555ZM877 1241Q808 1293 703 1391T549 1548V1569H822Q860 1499 925 1408T1035 1266V1241H877Z" />
<glyph unicode="&#xf3;" glyph-name="oacute" horiz-adv-x="1251" d="M1149 555Q1149 284 1010 132T623 -20Q468 -20 349 50T166 251T102 555Q102 824 240 975T629 1126Q869 1126 1009 972T1149 555ZM344 555Q344 172 627 172Q907 172 907 555Q907 934 625 934Q477
934 411 836T344 555ZM473 1241V1266Q530 1336 590 1422T686 1569H959V1548Q907 1487 804 1391T629 1241H473Z" />
<glyph unicode="&#xf4;" glyph-name="ocircumflex" horiz-adv-x="1251" d="M1149 555Q1149 284 1010 132T623 -20Q468 -20 349 50T166 251T102 555Q102 824 240 975T629 1126Q869 1126 1009 972T1149 555ZM344 555Q344 172 627 172Q907 172 907 555Q907 934 625
934Q477 934 411 836T344 555ZM850 1241Q727 1314 622 1421Q519 1318 397 1241H239V1266Q430 1464 493 1569H753Q816 1459 1009 1266V1241H850Z" />
<glyph unicode="&#xf5;" glyph-name="otilde" horiz-adv-x="1251" d="M1149 555Q1149 284 1010 132T623 -20Q468 -20 349 50T166 251T102 555Q102 824 240 975T629 1126Q869 1126 1009 972T1149 555ZM344 555Q344 172 627 172Q907 172 907 555Q907 934 625 934Q477
934 411 836T344 555ZM1031 1241Q989 1241 949 1258T869 1297T793 1336T722 1354Q641 1354 613 1239H491Q503 1378 568 1451T736 1524Q779 1524 820 1507T900 1468T975 1429T1046 1411Q1125 1411 1152 1526H1277Q1265 1392 1200 1317T1031 1241Z" />
<glyph unicode="&#xf6;" glyph-name="odieresis" horiz-adv-x="1251" d="M1149 555Q1149 284 1010 132T623 -20Q468 -20 349 50T166 251T102 555Q102 824 240 975T629 1126Q869 1126 1009 972T1149 555ZM344 555Q344 172 627 172Q907 172 907 555Q907 934 625
934Q477 934 411 836T344 555ZM311 1399Q311 1461 344 1488T426 1516Q479 1516 510 1485T542 1399Q542 1346 510 1314T426 1282Q378 1282 345 1311T311 1399ZM704 1399Q704 1461 737 1488T819 1516Q872 1516 904 1485T936 1399Q936 1345 903 1314T819 1282Q771
1282 738 1311T704 1399Z" />
<glyph unicode="&#xf7;" glyph-name="divide" horiz-adv-x="1169" d="M96 633V811H1073V633H96ZM457 373Q457 437 488 472T584 508Q645 508 677 472T709 373Q709 310 675 273T584 236Q524 236 491 271T457 373ZM457 1071Q457 1135 488 1170T584 1206Q645 1206
677 1170T709 1071Q709 1008 675 971T584 934Q524 934 491 969T457 1071Z" />
<glyph unicode="&#xf8;" glyph-name="oslash" horiz-adv-x="1251" d="M1149 555Q1149 284 1010 132T623 -20Q479 -20 373 37L297 -72L162 18L244 135Q102 290 102 555Q102 824 240 975T629 1126Q773 1126 887 1063L956 1163L1092 1071L1014 963Q1149 811 1149
555ZM344 555Q344 420 381 336L772 895Q712 934 625 934Q477 934 411 836T344 555ZM907 555Q907 676 874 758L487 205Q541 172 627 172Q907 172 907 555Z" />
<glyph unicode="&#xf9;" glyph-name="ugrave" horiz-adv-x="1300" d="M948 0L915 145H903Q854 68 764 24T557 -20Q356 -20 257 80T158 383V1106H395V424Q395 297 447 234T610 170Q758 170 827 258T897 555V1106H1133V0H948ZM873 1241Q804 1293 699 1391T545 1548V1569H818Q856
1499 921 1408T1031 1266V1241H873Z" />
<glyph unicode="&#xfa;" glyph-name="uacute" horiz-adv-x="1300" d="M948 0L915 145H903Q854 68 764 24T557 -20Q356 -20 257 80T158 383V1106H395V424Q395 297 447 234T610 170Q758 170 827 258T897 555V1106H1133V0H948ZM501 1241V1266Q558 1336 618 1422T714
1569H987V1548Q935 1487 832 1391T657 1241H501Z" />
<glyph unicode="&#xfb;" glyph-name="ucircumflex" horiz-adv-x="1300" d="M948 0L915 145H903Q854 68 764 24T557 -20Q356 -20 257 80T158 383V1106H395V424Q395 297 447 234T610 170Q758 170 827 258T897 555V1106H1133V0H948ZM871 1241Q748 1314 643 1421Q540
1318 418 1241H260V1266Q451 1464 514 1569H774Q837 1459 1030 1266V1241H871Z" />
<glyph unicode="&#xfc;" glyph-name="udieresis" horiz-adv-x="1300" d="M948 0L915 145H903Q854 68 764 24T557 -20Q356 -20 257 80T158 383V1106H395V424Q395 297 447 234T610 170Q758 170 827 258T897 555V1106H1133V0H948ZM332 1399Q332 1461 365 1488T447
1516Q500 1516 531 1485T563 1399Q563 1346 531 1314T447 1282Q399 1282 366 1311T332 1399ZM725 1399Q725 1461 758 1488T840 1516Q893 1516 925 1485T957 1399Q957 1345 924 1314T840 1282Q792 1282 759 1311T725 1399Z" />
<glyph unicode="&#xfd;" glyph-name="yacute" horiz-adv-x="1098" d="M0 1106H256L481 479Q532 345 549 227H557Q566 282 590 360T844 1106H1098L625 -147Q496 -492 195 -492Q117 -492 43 -475V-289Q96 -301 164 -301Q334 -301 403 -104L444 0L0 1106ZM401 1241V1266Q458
1336 518 1422T614 1569H887V1548Q835 1487 732 1391T557 1241H401Z" />
<glyph unicode="&#xfe;" glyph-name="thorn" horiz-adv-x="1276" d="M403 961Q464 1047 545 1086T733 1126Q939 1126 1055 975T1171 555Q1171 283 1055 132T733 -20Q514 -20 403 129H389L397 57L403 -35V-492H168V1556H403V1126L396 988L393 961H403ZM674 934Q532
934 468 852T403 592V555Q403 353 467 263T676 172Q930 172 930 557Q930 747 869 840T674 934Z" />
<glyph unicode="&#xff;" glyph-name="ydieresis" horiz-adv-x="1098" d="M0 1106H256L481 479Q532 345 549 227H557Q566 282 590 360T844 1106H1098L625 -147Q496 -492 195 -492Q117 -492 43 -475V-289Q96 -301 164 -301Q334 -301 403 -104L444 0L0 1106ZM495
1399Q495 1461 528 1488T610 1516Q663 1516 694 1485T726 1399Q726 1346 694 1314T610 1282Q562 1282 529 1311T495 1399ZM888 1399Q888 1461 921 1488T1003 1516Q1056 1516 1088 1485T1120 1399Q1120 1345 1087 1314T1003 1282Q955 1282 922 1311T888 1399Z" />
<glyph unicode="&#x2013;" glyph-name="endash" horiz-adv-x="1024" d="M82 455V645H942V455H82Z" />
<glyph unicode="&#x2014;" glyph-name="emdash" horiz-adv-x="2048" d="M82 455V645H1966V455H82Z" />
<glyph unicode="&#x2018;" glyph-name="quoteleft" horiz-adv-x="395" d="M37 961L25 983Q45 1066 96 1207T201 1462H371Q307 1206 270 961H37Z" />
<glyph unicode="&#x2019;" glyph-name="quoteright" horiz-adv-x="395" d="M356 1462L371 1440Q318 1231 195 961H25Q94 1250 125 1462H356Z" />
<glyph unicode="&#x201a;" glyph-name="quotesinglbase" horiz-adv-x="549" d="M412 215Q364 29 236 -264H63Q132 6 166 238H397L412 215Z" />
<glyph unicode="&#x201c;" glyph-name="quotedblleft" horiz-adv-x="813" d="M440 983Q493 1186 618 1462H788Q719 1166 688 961H455L440 983ZM25 983Q45 1066 96 1207T201 1462H371Q307 1206 270 961H37L25 983Z" />
<glyph unicode="&#x201d;" glyph-name="quotedblright" horiz-adv-x="813" d="M371 1440Q318 1231 195 961H25Q94 1250 125 1462H356L371 1440ZM788 1440Q735 1231 612 961H440Q509 1232 543 1462H774L788 1440Z" />
<glyph unicode="&#x201e;" glyph-name="quotedblbase" horiz-adv-x="944" d="M391 215Q336 1 215 -264H43Q109 -4 145 238H377L391 215ZM809 215Q761 29 633 -264H461Q527 -4 563 238H795L809 215Z" />
<glyph unicode="&#x2022;" glyph-name="bullet" horiz-adv-x="770" d="M131 748Q131 886 197 958T385 1030Q506 1030 572 958T639 748Q639 613 572 539T385 465Q265 465 198 537T131 748Z" />
<glyph unicode="&#x2039;" glyph-name="guilsinglleft" horiz-adv-x="688" d="M82 561L438 993L606 899L324 549L606 201L438 104L82 535V561Z" />
<glyph unicode="&#x203a;" glyph-name="guilsinglright" horiz-adv-x="688" d="M606 535L248 104L80 201L362 549L80 899L248 993L606 561V535Z" />
</font>
</defs>
</svg>
