<?xml version="1.0" standalone="no"?>
<!DOCTYPE svg PUBLIC "-//W3C//DTD SVG 1.1//EN" "http://www.w3.org/Graphics/SVG/1.1/DTD/svg11.dtd">
<svg xmlns="http://www.w3.org/2000/svg">
<defs >
<font id="Lora" horiz-adv-x="594" ><font-face
    font-family="Lora"
    units-per-em="1000"
    panose-1="0 0 5 0 0 0 0 0 0 0"
    ascent="1006"
    descent="-274"
    alphabetic="0" />
<glyph unicode=" " glyph-name="space" horiz-adv-x="263" />
<glyph unicode="!" glyph-name="exclam" horiz-adv-x="266" d="M75 643Q73 671 88 693T133 716Q163 716 177 694T190 643L151 230H114L75 643ZM108 -16T91 2T74 48Q74 75 91 94T133 113Q158 113 174 94T191 48Q191 21 174 3T132 -16Q108 -16 91 2Z" />
<glyph unicode="&quot;" glyph-name="quotedbl" horiz-adv-x="346" d="M62 716H140L131 491H70L62 716ZM205 716H283L274 491H213L205 716Z" />
<glyph unicode="#" glyph-name="numbersign" horiz-adv-x="830" d="M199 178H33L49 238H213L268 469H99L115 529H282L326 716H392L349 529H562L606 716H672L629 529H796V528L781 469H615L563 238H730L714 178H550L506 -16H434L479 178H270L226 -16H154L199 178ZM493
238L547 469H335L283 238H493Z" />
<glyph unicode="$" glyph-name="dollar" horiz-adv-x="529" d="M244 -16Q210 -15 172 -3T106 27L111 -13H57V198H92Q97 109 144 66T275 23Q333 23 370 58T408 148Q408 189 386 219T332 270T244 320Q181 353 143 379T77 445T50 542Q50 578 69 618T131 686T239 716V833H293L292
716Q356 709 403 674L399 716H449V498H412Q401 678 253 678Q194 678 163 643T131 560Q131 522 152 493T206 443T294 393Q359 359 398 333T464 267T492 170Q492 96 442 43T297 -16V-153H245L244 -16Z" />
<glyph unicode="%" glyph-name="percent" horiz-adv-x="870" d="M160 335T119 361T57 430T36 522Q36 571 58 616T122 688T223 716Q280 716 320 690T381 622T401 532Q401 481 376 436T309 363T217 335Q160 335 119 361ZM123 18L687 716L732 676L165 -17L123 18ZM270
375T292 417T315 516Q315 579 292 630T218 681Q168 681 145 635T122 539Q122 477 144 426T220 375Q270 375 292 417ZM592 -16T551 10T490 79T469 169Q469 220 494 265T561 337T654 365Q711 365 752 339T814 270T835 178Q835 130 813 85T749 12T650 -16Q592 -16
551 10ZM705 20T727 65T749 162Q749 224 727 275T651 326Q601 326 579 284T556 185Q556 124 580 72T655 20Q705 20 727 65Z" />
<glyph unicode="&amp;" glyph-name="ampersand" horiz-adv-x="695" d="M209 -16T156 4T69 69T36 180Q36 243 77 293T193 376Q153 427 135 469T117 559Q118 630 169 673T302 716Q351 716 389 698T448 647T469 576Q469 518 431 470T305 377Q329 351 385 293Q428
248 490 190Q500 224 500 254Q500 294 483 323T424 354V387H599V346L516 350Q547 323 547 260Q547 210 527 157L547 139Q561 126 577 112Q620 73 653 53T703 33V0H610Q599 0 566 21T486 83Q409 -16 271 -16Q209 -16 156 4ZM337 437T365 482T393 573Q393 622 368
653T297 684Q255 684 228 653T201 567Q201 492 283 401Q337 437 365 482ZM395 34T454 111Q434 129 425 138L410 152Q395 167 327 234T219 347Q176 321 156 278T136 195Q136 115 182 75T293 34Q395 34 454 111Z" />
<glyph unicode="&apos;" glyph-name="quotesingle" horiz-adv-x="208" d="M62 716H146L137 491H71L62 716Z" />
<glyph unicode="(" glyph-name="parenleft" horiz-adv-x="305" d="M288 737Q212 636 175 510T137 239Q137 -47 288 -248L263 -271Q209 -221 157 -143T71 35T36 239Q36 343 70 445T157 629T263 760L288 737Z" />
<glyph unicode=")" glyph-name="parenright" horiz-adv-x="305" d="M18 -248Q94 -147 131 -21T169 250Q169 536 18 737L43 760Q97 710 149 632T235 454T270 250Q270 146 236 44T149 -140T43 -271L18 -248Z" />
<glyph unicode="*" glyph-name="asterisk" horiz-adv-x="520" d="M111 313T111 330Q111 355 138 386Q162 411 188 437T236 480Q196 482 99 500Q40 513 40 546Q40 554 42 559Q50 583 78 583Q100 583 124 571Q156 557 189 540T245 508Q233 548 222 644Q221 650 221
661Q221 684 230 700T260 716Q280 716 288 702T297 664Q297 650 296 644Q285 548 273 508Q303 527 344 547T394 571Q418 583 439 583Q468 583 476 559Q478 554 478 546Q478 514 419 500Q412 499 366 491T283 480Q319 452 381 386Q409 356 409 331Q409 313 394 302Q384
295 374 295Q349 295 322 338Q318 346 295 388T260 463Q245 426 198 338Q173 295 146 295Q135 295 125 302Q111 313 111 330Z" />
<glyph unicode="+" glyph-name="plus" horiz-adv-x="515" d="M225 288L35 287V347L225 346V543H290V346L480 345V289L290 288V82H225V288Z" />
<glyph unicode="," glyph-name="comma" horiz-adv-x="253" d="M91 -159Q108 -137 123 -97T138 -18Q138 -6 137 0Q124 -6 112 -6Q92 -6 79 8T66 43Q66 70 82 85T121 101Q154 101 173 76T192 10Q192 -31 171 -89T118 -179L91 -159Z" />
<glyph unicode="-" glyph-name="hyphen" horiz-adv-x="489" d="M67 355H422V289L67 285V355Z" />
<glyph unicode="." glyph-name="period" horiz-adv-x="246" d="M98 -16T81 2T64 48Q64 75 81 94T123 113Q148 113 164 94T181 48Q181 21 164 3T122 -16Q98 -16 81 2Z" />
<glyph unicode="/" glyph-name="slash" horiz-adv-x="690" d="M21 -235L605 760L670 719L79 -271L21 -235Z" />
<glyph unicode="0" glyph-name="zero" horiz-adv-x="621" d="M172 -16T114 90T56 347Q56 438 83 522T169 661T315 716Q406 716 462 663T542 527T566 352Q566 262 540 178T456 39T311 -16Q172 -16 114 90ZM395 23T429 112T463 331Q463 475 429 576T313 678Q233
678 196 587T159 368Q159 234 194 129T317 23Q395 23 429 112Z" />
<glyph unicode="1" glyph-name="one" horiz-adv-x="364" d="M74 33Q123 35 142 63T161 147L160 619H158L38 542L18 571L213 716H247L248 109Q248 59 245 40L329 44V0H74V33Z" />
<glyph unicode="2" glyph-name="two" horiz-adv-x="537" d="M46 57T66 102T117 181T203 268Q242 304 243 305Q307 366 336 419T366 522Q366 588 338 632T243 677Q202 677 170 657T127 606Q145 587 145 562Q145 545 133 530T98 515Q76 515 63 530T50 570Q50 601
74 635T146 692T259 716Q349 716 409 673T469 535Q469 482 423 416T273 266Q203 208 161 159T111 76L288 71Q310 70 348 70Q403 70 429 84T455 140H485L479 0H46Q46 57 66 102Z" />
<glyph unicode="3" glyph-name="three" horiz-adv-x="557" d="M187 -16T140 5T68 57T44 120Q44 144 57 159T93 175Q116 175 126 161T137 130Q137 114 126 90Q135 58 169 42T248 26Q320 26 362 65T404 178Q404 255 367 302T234 349Q224 349 190 347V392H231Q280
392 311 414T356 470T370 534Q370 601 343 639T251 677Q209 677 176 655T134 605Q150 588 150 564Q150 549 139 535T106 521Q85 521 73 535T61 572Q61 602 84 635T154 692T265 716Q353 716 410 674T467 542Q467 490 428 446T303 375Q398 364 452 314T507 185Q507
120 473 75T381 7T255 -16Q187 -16 140 5Z" />
<glyph unicode="4" glyph-name="four" horiz-adv-x="542" d="M229 33H236Q284 36 300 67T316 159V193H12V242L374 716H407V253L508 252V193H407V109Q407 58 403 38L480 41V0H229V33ZM316 574H314L78 258L316 255V574Z" />
<glyph unicode="5" glyph-name="five" horiz-adv-x="544" d="M194 -16T148 5T77 57T52 120Q52 144 65 159T101 175Q124 175 134 161T145 130Q145 113 134 91Q140 58 176 41T252 23Q323 23 359 72T396 192Q396 389 241 389Q213 389 173 379T109 354L81 380L79 700H338Q394
700 416 715T438 765H465L459 633L125 626V406Q153 418 191 426T270 434Q348 434 399 402T475 319T500 210Q500 139 467 88T377 10T254 -16Q194 -16 148 5Z" />
<glyph unicode="6" glyph-name="six" horiz-adv-x="578" d="M167 -16T112 72T56 329Q56 406 79 494T163 649T328 716Q384 716 424 696T484 646T505 589Q505 567 494 553T462 537Q439 536 428 549T417 579Q417 600 429 621Q423 642 396 660T330 679Q230 679 192
575T150 353Q177 390 220 413T318 437Q393 437 440 404T508 320T529 213Q529 151 499 99T415 15T295 -16Q167 -16 112 72ZM363 23T395 71T428 191Q428 268 400 330T297 392Q251 392 209 359T151 282Q157 170 191 97T297 23Q363 23 395 71Z" />
<glyph unicode="7" glyph-name="seven" horiz-adv-x="461" d="M160 -16T160 28Q160 52 174 92T214 196L228 232L241 265Q292 393 324 472T395 631L131 630Q46 628 46 552H22V700H441V632Q395 538 364 451T310 281T250 45Q234 -16 198 -16Q160 -16 160 28Z" />
<glyph unicode="8" glyph-name="eight" horiz-adv-x="562" d="M224 -16T175 0T92 54T59 150Q59 261 211 355Q73 438 73 535Q73 595 103 635T183 696T285 716Q337 716 381 697T453 642T480 555Q480 499 443 455T345 380Q419 337 465 282T512 166Q512 77 445 31T276
-16Q224 -16 175 0ZM355 431T378 470T402 548Q402 610 371 643T285 677Q229 677 198 642T166 557Q166 504 206 463T310 400Q355 431 378 470ZM344 24T379 56T414 147Q414 267 249 337Q194 298 169 249T143 157Q143 97 181 61T281 24Q344 24 379 56Z" />
<glyph unicode="9" glyph-name="nine" horiz-adv-x="578" d="M196 -16T155 2T95 49T75 107Q75 129 86 144T119 160Q141 161 152 147T164 117Q164 96 150 76Q157 52 182 37T252 22Q352 22 389 122T425 346Q398 309 355 286T257 262Q182 262 135 295T68 378T48 485Q48
550 77 602T160 685T284 716Q415 716 467 622T519 359Q519 210 464 98T257 -16Q196 -16 155 2ZM324 307T366 340T424 417Q418 529 385 603T277 678Q216 678 182 628T147 507Q147 430 175 369T278 307Q324 307 366 340Z" />
<glyph unicode=":" glyph-name="colon" horiz-adv-x="250" d="M101 -16T84 2T67 48Q67 75 84 94T126 113Q151 113 167 94T184 48Q184 21 167 3T125 -16Q101 -16 84 2ZM101 387T84 405T67 451Q67 478 84 497T126 516Q151 516 167 497T184 451Q184 424 167 406T125
387Q101 387 84 405Z" />
<glyph unicode=";" glyph-name="semicolon" horiz-adv-x="263" d="M95 -159Q112 -137 127 -97T142 -18Q142 -6 141 0Q128 -6 116 -6Q96 -6 83 8T70 43Q70 70 86 85T125 101Q158 101 177 76T196 10Q196 -31 175 -89T122 -179L95 -159ZM104 387T87 405T70 451Q70
478 87 497T129 516Q154 516 170 497T187 451Q187 424 170 406T128 387Q104 387 87 405Z" />
<glyph unicode="&lt;" glyph-name="less" horiz-adv-x="542" d="M34 279V346L479 544V482L102 316L479 149V85L34 279Z" />
<glyph unicode="=" glyph-name="equal" horiz-adv-x="592" d="M73 437L519 435V377L73 375V437ZM73 249L519 247V189L73 187V249Z" />
<glyph unicode="&gt;" glyph-name="greater" horiz-adv-x="541" d="M508 350V283L63 85V147L440 313L63 480V544L508 350Z" />
<glyph unicode="?" glyph-name="question" horiz-adv-x="474" d="M193 188T170 204T146 255Q146 281 165 303T224 361Q261 392 284 416T325 475T342 551Q342 608 313 642T220 677Q193 677 169 666T129 639T110 606Q122 587 122 567Q122 552 110 538T76 524Q55
525 44 539T33 577Q33 607 58 639T129 694T235 716Q305 716 350 693T416 632T437 551Q437 512 417 478T368 419T295 359Q251 324 232 305T213 267Q213 253 223 244T255 234Q275 234 292 241L304 206Q289 197 267 193T226 188Q193 188 170 204ZM211 -16T195 0T178
43Q178 67 194 84T232 102Q254 102 270 85T286 43Q286 18 271 1T232 -16Q211 -16 195 0Z" />
<glyph unicode="@" glyph-name="at" horiz-adv-x="796" d="M292 -95T212 -48T91 80T50 257Q50 349 91 436T217 580T423 637Q527 637 602 591T715 472T754 318Q754 229 723 172T648 90T563 64Q556 64 544 66Q503 73 486 98T469 161Q469 187 479 243H477Q444 141
406 106T325 70Q279 70 249 105T219 209Q219 284 246 346T327 445T454 482Q514 482 562 469L552 386Q536 270 532 214Q531 203 531 182Q531 108 568 100Q572 99 580 99Q607 99 630 123T668 191T683 292Q683 445 611 520T421 595Q401 595 390 594Q310 588 251 542T159
422T127 263Q127 156 169 86T280 -18T430 -52Q575 -52 654 41L678 16Q629 -40 560 -67T407 -95Q292 -95 212 -48ZM376 108T411 161T468 294T491 443Q467 452 429 452Q385 452 353 417T305 328T289 218Q289 167 303 138T342 108Q376 108 411 161Z" />
<glyph unicode="A" glyph-name="A" horiz-adv-x="626" d="M-6 33Q19 33 34 44T58 74T81 130L91 158L297 719H321L544 150Q555 123 563 92T570 40L638 44V0H409V33Q468 34 468 81Q468 100 458 128L423 222L163 216Q148 175 128 109Q118 76 103 40L181 44V0H-6V33ZM409
259L338 450L293 573H291L249 460L195 308L178 259H409Z" />
<glyph unicode="B" glyph-name="B" horiz-adv-x="622" d="M55 33Q90 34 105 49T122 85T124 161V581Q124 635 127 660L55 656V700Q201 702 281 702Q399 702 462 661T526 535Q526 481 484 436T361 376V374Q468 374 525 325T583 196Q583 136 553 92T469 24T347 0H55V33ZM284
385Q363 386 399 428T435 533Q435 608 392 637T286 666Q254 666 238 657T217 628T211 569V383L284 385ZM393 38T439 77T486 190Q486 275 439 311T314 347Q259 347 211 344V118Q211 66 208 40Q227 38 280 38H314Q393 38 439 77Z" />
<glyph unicode="C" glyph-name="C" horiz-adv-x="699" d="M288 -16T211 31T90 159T46 339Q46 437 85 523T203 662T393 716Q503 716 595 655L590 709H644V477H608Q598 570 543 622T400 675Q329 675 271 636T178 523T144 354Q144 262 180 190T277 77T412 36Q479
36 541 66T643 151L669 130Q611 49 536 17T386 -16Q288 -16 211 31Z" />
<glyph unicode="D" glyph-name="D" horiz-adv-x="745" d="M55 33Q90 34 105 49T122 84T124 156V588Q124 630 127 660L55 656V700L291 701Q479 702 589 613T699 349Q699 255 655 175T525 48T318 0H55V33ZM399 38T464 79T565 192T601 353Q601 499 521 581T280 664Q245
664 230 650T213 616T211 544V118Q211 66 208 40Q243 38 315 38Q399 38 464 79Z" />
<glyph unicode="E" glyph-name="E" horiz-adv-x="622" d="M55 33Q90 34 105 49T122 84T124 156V588Q124 630 127 660L55 656V700H536L541 525H508Q508 607 473 637T373 665L287 663Q251 662 235 650T215 615T211 544V384L399 383L392 469H436V259H403Q403 296
394 315T367 341T315 348L284 347L211 344V115Q211 63 208 37L399 40Q469 41 506 75T543 195H577L571 0H55V33Z" />
<glyph unicode="F" glyph-name="F" horiz-adv-x="548" d="M55 33Q90 34 105 49T122 84T124 156V588Q124 630 127 660L55 656V700H519L524 525H491Q491 607 454 637T353 665L280 663Q245 662 231 647T214 611T211 540V368L385 367L378 454H422V243H390Q390 281
382 300T355 326T305 333Q283 333 271 332L211 329V119Q211 66 208 40L310 44V0H55V33Z" />
<glyph unicode="G" glyph-name="G" horiz-adv-x="761" d="M287 -16T210 26T90 148T47 335Q47 433 86 520T205 661T395 716Q449 716 504 702T602 661L598 709H653V480H617Q610 572 551 624T402 676Q331 676 273 635T180 522T145 358Q145 264 179 190T274 74T413
32Q456 32 501 44T584 82V301L514 297V341H740V308Q692 308 680 272T668 189V36H641Q599 36 533 10Q503 -2 462 -9T387 -16Q287 -16 210 26Z" />
<glyph unicode="H" glyph-name="H" horiz-adv-x="780" d="M55 33Q90 34 105 49T122 84T124 156V588Q124 630 127 660L55 656V700H280V667Q245 666 230 651T213 616T211 544V378H569V588Q569 630 572 660L500 656V700H725V667Q690 666 675 651T658 616T656 544V119Q656
66 653 40L725 44V0H500V33Q535 34 550 49T567 84T569 156V338L211 334V119Q211 66 208 40L280 44V0H55V33Z" />
<glyph unicode="I" glyph-name="I" horiz-adv-x="335" d="M55 33Q90 34 105 49T122 84T124 156V588Q124 630 127 660L55 656V700H280V667Q245 666 230 651T213 616T211 544V119Q211 66 208 40L280 44V0H55V33Z" />
<glyph unicode="J" glyph-name="J" horiz-adv-x="373" d="M60 -16T29 3T-2 55Q-2 77 10 92T45 107Q65 107 75 94T85 63Q85 49 81 41Q86 32 98 28T120 25Q151 26 165 52T179 139V660L77 656V700H343V667Q297 667 282 642T266 568V244Q266 149 250 93T198 10T104
-16Q60 -16 29 3Z" />
<glyph unicode="K" glyph-name="K" horiz-adv-x="683" d="M55 33Q90 34 105 49T122 84T124 156V588Q124 630 127 660L55 656V700H280V667Q245 666 230 651T213 616T211 544V380H286L411 577Q448 633 482 661L421 659V700H636V667Q590 663 559 652T497 613T434
532L336 376Q358 362 374 346T402 313T419 291L531 142Q568 93 592 70T635 40T678 33V0H556Q530 0 455 98L335 260Q311 291 294 311T260 341L211 340V119Q211 66 208 40L280 44V0H55V33Z" />
<glyph unicode="L" glyph-name="L" horiz-adv-x="578" d="M55 33Q90 34 105 49T122 84T124 156V588Q124 630 127 660L55 656V700H280V667Q245 666 230 651T213 616T211 544V115Q211 63 208 37L395 40Q459 41 491 80T523 207H557L551 0H55V33Z" />
<glyph unicode="M" glyph-name="M" horiz-adv-x="918" d="M376 115Q300 284 258 381T176 587L175 543Q166 250 164 125Q164 110 163 103Q163 69 160 40L235 44V0H44V33Q86 34 98 56T113 125L135 660L63 657V700H216L352 386Q426 212 466 122H468Q480 152 519 251Q557
347 606 462Q663 596 704 700H852V667Q816 668 799 648T782 578L783 558L809 103Q811 80 811 41L884 44V0H660V33Q699 34 713 55T727 123Q727 142 726 152L700 578Q698 573 695 565T687 546L462 -10H432L376 115Z" />
<glyph unicode="N" glyph-name="N" horiz-adv-x="762" d="M168 567H167L170 139Q170 72 168 40L240 44V0H57V33Q97 33 110 56T123 112L124 660L57 656V700H176L602 130H603L604 588Q604 630 607 660L535 656V700H719V667Q689 666 675 656T656 627T652 579V544L650
-16H602L168 567Z" />
<glyph unicode="O" glyph-name="O" horiz-adv-x="794" d="M282 -16T202 37T84 173T46 350Q46 439 85 523T203 661T394 716Q509 716 589 662T710 523T750 350Q750 262 711 178T593 39T402 -16Q282 -16 202 37ZM482 25T537 69T621 184T650 331Q650 416 619 495T529
625T391 676Q313 676 257 632T173 516T144 368Q144 289 173 210T261 78T404 25Q482 25 537 69Z" />
<glyph unicode="P" glyph-name="P" horiz-adv-x="606" d="M55 33Q90 34 105 49T122 84T124 156V588Q124 630 127 660L55 656V700Q195 702 278 702Q427 702 503 650T580 497Q580 439 550 386T445 298T247 263Q224 263 211 264V119Q211 66 208 40L300 45V0H55V33ZM333
302T380 324T455 389T483 489Q483 579 428 621T276 663Q242 663 229 649T213 616T211 544V305Q236 302 276 302Q333 302 380 324Z" />
<glyph unicode="Q" glyph-name="Q" horiz-adv-x="796" d="M685 -126T707 -145T748 -175T786 -185V-218H754Q710 -218 687 -216T640 -201T585 -162Q557 -137 517 -95Q474 -52 450 -34T395 -16Q277 -14 199 39T83 175T46 350Q46 439 85 523T203 661T394 716Q509
716 589 662T710 523T750 350Q750 274 720 199T630 68T483 -7Q524 -8 554 -20T626 -71Q685 -126 707 -145ZM144 289T173 210T261 78T404 25Q482 25 537 69T621 184T650 331Q650 416 619 495T529 625T391 676Q313 676 257 632T173 516T144 368Q144 289 173 210Z"
/>
<glyph unicode="R" glyph-name="R" horiz-adv-x="628" d="M55 33Q90 34 105 49T122 84T124 156V588Q124 630 127 660L55 656V700Q159 702 212 702Q260 702 284 701Q425 699 490 654T556 522Q557 453 515 398T369 322Q386 309 400 291T438 235L506 128Q528 93 542
75T577 45T628 33V0H502Q475 23 457 47T413 111L346 218L333 239Q317 266 305 283T279 313Q270 312 251 312Q224 312 211 313V119Q211 66 208 40L280 44V0H55V33ZM459 350T459 511Q459 587 415 625T280 663Q245 663 230 649T213 615T211 544V352Q241 350 255 350Q459
350 459 511Z" />
<glyph unicode="S" glyph-name="S" horiz-adv-x="567" d="M242 -16T195 -3T111 35L116 -8H64L58 205H97Q102 119 156 73T293 26Q354 26 395 59T437 151Q437 194 414 224T356 275T262 323Q195 355 156 379T88 442T60 540Q60 580 78 620T142 688T263 716Q308 716
353 705T437 665L433 708H484V488H448Q443 567 398 621T270 676Q210 676 176 643T142 559Q142 519 165 490T221 442T314 395Q382 364 423 339T494 274T523 174Q523 118 496 75T415 8T289 -16Q242 -16 195 -3Z" />
<glyph unicode="T" glyph-name="T" horiz-adv-x="640" d="M208 33Q251 35 263 57T276 125V156L277 663L174 662Q112 662 86 621T59 489H22L28 700H611L617 489H579Q578 552 567 589T528 645T449 664H364L363 119Q363 66 360 40L443 44V0H208V33Z" />
<glyph unicode="U" glyph-name="U" horiz-adv-x="752" d="M275 -16T214 21T126 136T99 341V544Q99 608 103 660L31 657V700H255V667Q211 667 199 644T187 588V336Q187 249 202 186T263 82T394 41Q498 41 548 112T601 307L604 588Q604 630 607 660L536 656V700H722V667Q686
666 671 651T654 616T652 544L650 312Q649 167 586 76T381 -16Q275 -16 214 21Z" />
<glyph unicode="V" glyph-name="V" horiz-adv-x="653" d="M95 522Q59 607 52 658L-4 656V700H228V667L227 666Q194 664 179 652T163 615Q163 592 177 558L203 494Q213 469 233 418T272 325L298 264Q337 175 353 132H355L392 239L405 275L493 522L516 586Q535 640
545 660L468 656V700H671V667Q627 665 604 644T561 569L350 -10H322L95 522Z" />
<glyph unicode="W" glyph-name="W" horiz-adv-x="995" d="M105 522L92 561Q68 636 63 658L7 656V700H250V667Q209 665 192 654T175 616Q175 592 185 558Q203 491 233 408Q238 393 245 373T261 325Q267 304 276 279T289 243Q309 189 319 157H321Q341 225 362 289Q398
405 441 534Q486 669 495 702H527Q539 661 568 574T610 447Q640 361 651 325Q659 298 677 244Q697 186 709 145H712Q736 223 753 274Q804 419 836 524Q847 561 856 586Q875 637 887 659L807 656V700H1010V667Q974 663 956 652T923 613T886 519L835 367Q755 124
706 -10H676L489 525L313 -10H284L105 522Z" />
<glyph unicode="X" glyph-name="X" horiz-adv-x="649" d="M12 33Q42 39 64 54T104 90T149 153L279 339Q253 375 234 402T199 450Q121 559 99 592T64 658L9 656V700H268V667L224 665Q176 664 176 638Q176 628 182 616T201 584Q227 541 325 405L421 544Q446 580
471 614T510 660L426 656V700H623V667Q580 661 545 625T466 528L353 368L497 177L529 135L598 42L656 44V0H411V33Q471 30 471 63Q471 81 453 106L420 149Q361 223 306 300Q256 228 207 153Q202 145 178 108T125 39L208 44V0H12V33Z" />
<glyph unicode="Y" glyph-name="Y" horiz-adv-x="634" d="M215 33Q258 35 270 57T283 125V156L284 270L110 545Q64 616 56 658L-6 656V700H252V667Q174 667 174 623Q174 597 199 558L230 509Q294 405 341 340H343Q378 409 450 544L471 583Q500 638 519 659L440
656V700H644V667Q597 664 566 635T497 538L371 300Q370 251 370 196T370 119Q370 66 367 40L450 44V0H215V33Z" />
<glyph unicode="Z" glyph-name="Z" horiz-adv-x="610" d="M43 46L55 63Q230 304 398 573Q436 632 462 663L207 659Q147 657 118 617T89 493H55L61 700H557V665L198 120Q161 65 130 37L373 41Q443 42 485 83T528 205H562L556 0H43V46Z" />
<glyph unicode="[" glyph-name="bracketleft" horiz-adv-x="359" d="M80 755H345V695L155 692L150 -192L347 -195V-255H79L80 755Z" />
<glyph unicode="\" glyph-name="backslash" horiz-adv-x="690" d="M670 -235L86 760L21 719L612 -271L670 -235Z" />
<glyph unicode="]" glyph-name="bracketright" horiz-adv-x="359" d="M279 -255H14V-195L204 -192L209 692L12 695V755H280L279 -255Z" />
<glyph unicode="^" glyph-name="asciicircum" horiz-adv-x="823" d="M409 681L142 441H60L368 716H457L763 437H675L409 681Z" />
<glyph unicode="_" glyph-name="underscore" horiz-adv-x="729" d="M57 -50L672 -54V-111H57V-50Z" />
<glyph unicode="`" glyph-name="grave" horiz-adv-x="252" d="M67 686Q46 708 46 729Q46 745 58 757Q70 765 82 765Q104 765 123 738L207 603L179 580L67 686Z" />
<glyph unicode="a" glyph-name="a" horiz-adv-x="516" d="M111 -16T73 17T34 103Q34 161 80 201T197 260T339 279V341Q339 406 320 442T239 479Q208 479 180 466T139 427Q152 413 152 389Q152 374 141 361T109 347Q88 347 76 360T64 396Q64 429 89 456T160 500T262
516Q346 516 386 472T425 331L424 106Q424 74 420 38L491 42V0H348Q345 15 341 57Q268 -16 184 -16Q111 -16 73 17ZM245 41T276 55T339 100Q338 115 338 151L339 245Q257 242 193 212T129 118Q129 81 151 61T207 41Q245 41 276 55Z" />
<glyph unicode="b" glyph-name="b" horiz-adv-x="582" d="M240 -16T201 -2T133 45L109 0H74L76 625Q76 663 79 690L8 686V728Q68 728 93 735T133 755H162V457Q190 485 228 500T313 516Q377 516 429 485T510 396T540 262Q540 179 504 116T408 19T280 -16Q240 -16
201 -2ZM352 25T394 83T437 237Q437 342 398 404T283 467Q250 467 218 452T162 410V157Q162 25 280 25Q352 25 394 83Z" />
<glyph unicode="c" glyph-name="c" horiz-adv-x="532" d="M220 -16T164 15T74 104T41 241Q41 311 74 374T167 477T302 516Q356 516 398 499T463 454T487 393Q487 370 474 355T438 340Q416 340 405 354T394 385Q394 410 409 425Q398 456 367 467T304 479Q258 479
222 454T164 381T143 266Q143 199 164 147T225 66T315 36Q360 36 403 60T472 122L498 102Q461 44 403 14T288 -16Q220 -16 164 15Z" />
<glyph unicode="d" glyph-name="d" horiz-adv-x="598" d="M196 -16T147 15T70 103T42 236Q42 316 75 380T166 480T299 516Q330 516 362 508T416 488V625Q416 663 419 690L348 686V728Q407 728 432 735T472 755H501V106Q501 74 497 38L568 42V0H425Q420 27 418
52Q389 20 348 2T258 -16Q196 -16 147 15ZM326 33T359 51T416 99Q415 115 415 154L416 442Q369 477 305 477Q233 477 189 418T145 260Q145 158 184 96T294 33Q326 33 359 51Z" />
<glyph unicode="e" glyph-name="e" horiz-adv-x="542" d="M217 -16T162 16T74 109T42 249Q42 319 74 380T163 479T294 516Q351 516 397 491T470 417T497 295L145 289Q144 169 184 102T310 35Q356 35 404 59T479 118L503 98Q465 40 405 12T286 -16Q217 -16 162
16ZM403 331Q403 391 376 434T295 477Q171 477 148 331H403Z" />
<glyph unicode="f" glyph-name="f" horiz-adv-x="338" d="M49 30Q78 30 90 44T105 81T108 152L107 457L25 455V500H107V521Q107 637 149 698T287 760Q325 760 359 741T394 686Q394 666 383 654T351 641Q331 641 321 654T310 682Q310 696 315 707Q308 715 296 719T272
724Q229 724 211 690T193 605V500H328V461L193 458L194 106Q194 61 190 38L253 41V0H49V30Z" />
<glyph unicode="g" glyph-name="g" horiz-adv-x="553" d="M199 -271T143 -252T61 -202T35 -136Q35 -94 63 -63T127 -16Q93 -5 76 14T58 63Q58 99 86 129T158 166Q111 188 84 227T57 318Q57 376 87 421T166 491T268 516Q336 516 395 479Q410 522 443 549T516 576Q541
576 555 563T569 526Q569 512 559 499T528 485Q511 485 499 495T484 520Q460 517 446 499T426 454Q451 431 465 400T479 335Q479 280 450 236T373 167T268 142Q255 142 235 144Q220 147 201 147Q168 147 146 133T123 97Q123 68 159 59T284 46Q407 40 468 7T530
-104Q530 -155 495 -193T403 -251T285 -271Q199 -271 143 -252ZM325 178T353 216T382 315Q382 385 352 433T266 481Q213 481 183 442T153 340Q153 267 184 223T271 178Q325 178 353 216ZM339 -232T380 -218T444 -179T466 -125Q466 -74 418 -55T274 -33Q211 -31
171 -25Q144 -43 129 -69T114 -124Q114 -173 160 -202T284 -232Q339 -232 380 -218Z" />
<glyph unicode="h" glyph-name="h" horiz-adv-x="599" d="M34 30Q63 30 76 44T91 82T94 152V625Q94 663 97 690L26 686V728Q86 728 111 735T151 755H180V450Q215 479 259 497T344 516Q430 516 469 462T509 292L510 106Q510 61 506 38L569 41V0H365V30Q394 30 406
44T421 81T424 152V292Q424 378 397 420T312 463Q275 463 239 446T180 401V106Q180 67 175 38L238 41V0H34V30Z" />
<glyph unicode="i" glyph-name="i" horiz-adv-x="281" d="M122 609T106 626T90 668Q90 692 106 710T144 728Q167 728 182 711T198 668Q198 644 182 627T143 609Q122 609 106 626ZM44 30Q73 30 85 44T100 81T103 152V380Q103 409 107 445L36 441V483Q95 483 120
490T160 510H189V106Q189 61 185 38L248 41V0H44V30Z" />
<glyph unicode="j" glyph-name="j" horiz-adv-x="218" d="M111 609T95 626T79 668Q79 692 95 710T133 728Q156 728 171 711T187 668Q187 644 171 627T132 609Q111 609 95 626ZM-48 -271T-68 -255T-88 -215Q-88 -195 -76 -182T-43 -168Q-22 -168 -12 -181T-1 -210Q-1
-216 -2 -219Q12 -225 24 -225Q47 -225 64 -208Q93 -180 93 -86L95 380Q95 418 98 445L27 441V483Q87 483 112 490T152 510H181V-3Q181 -137 129 -204T-9 -271Q-48 -271 -68 -255Z" />
<glyph unicode="k" glyph-name="k" horiz-adv-x="537" d="M35 30Q64 30 76 44T91 81T93 152Q93 162 93 261T94 625Q94 663 97 690L26 686V728Q85 728 110 735T150 755H179V282H219L341 410Q379 450 400 463L332 460V500H514V470Q470 465 434 438T354 365L276 283Q294
275 307 263T338 229L409 138Q411 136 431 108T480 55T530 30V0H439Q415 0 394 21T333 94L294 149Q272 180 253 206T220 245L179 243V106Q179 61 175 38L239 41V0H35V30Z" />
<glyph unicode="l" glyph-name="l" horiz-adv-x="272" d="M34 30Q63 30 75 44T90 81T93 152V625Q93 663 96 690L25 686V728Q85 728 110 735T150 755H179L180 106Q180 67 175 38L238 41V0H34V30Z" />
<glyph unicode="m" glyph-name="m" horiz-adv-x="894" d="M44 30Q73 30 85 44T100 81T103 152V380Q103 422 107 445L36 441V483Q95 483 117 489T154 510H183Q185 495 187 457Q218 484 257 500T334 516Q383 516 417 499T471 449Q507 478 551 497T637 516Q725 516
765 463T804 292L803 106Q803 61 799 38L862 41V0H658V30Q687 30 699 44T714 81T717 152V292Q717 378 690 420T605 463Q574 463 543 450T487 414Q497 383 497 341L495 106Q495 61 491 38L554 41V0H350V30Q379 30 391 44T406 80T409 152L410 292Q411 379 385 422T302
465Q271 465 241 452T188 417L189 363V106Q189 61 185 38L248 41V0H44V30Z" />
<glyph unicode="n" glyph-name="n" horiz-adv-x="607" d="M44 30Q73 30 85 44T100 80T103 152L104 380Q104 422 108 445L37 441V483Q96 483 118 489T155 510H184Q186 491 188 449Q222 479 265 497T351 516Q438 516 478 462T518 292V106Q518 61 514 38L577 41V0H373V30Q402
30 414 44T429 81T432 152V292Q431 378 404 421T319 465Q283 465 248 447T189 400Q190 389 190 361L189 106Q189 61 185 38L248 41V0H44V30Z" />
<glyph unicode="o" glyph-name="o" horiz-adv-x="585" d="M223 -16T166 16T75 107T41 238Q41 316 74 379T164 479T292 516Q361 516 419 483T510 391T544 262Q544 186 511 122T420 21T292 -16Q223 -16 166 16ZM373 24T407 84T442 233Q442 334 405 406T292 478Q218
478 181 417T143 267Q143 203 160 148T213 58T300 24Q373 24 407 84Z" />
<glyph unicode="p" glyph-name="p" horiz-adv-x="597" d="M35 -225Q64 -225 76 -211T91 -175T94 -103L96 380Q96 422 100 445L29 441V483Q88 483 110 489T146 510H176Q180 461 180 456Q210 483 252 499T335 516Q394 516 444 486T524 399T555 268Q555 185 520 121T427
20T300 -16Q231 -16 180 17V-149Q180 -194 176 -217L239 -214V-255H35V-225ZM345 24T379 53T433 134T452 252Q452 342 414 404T299 467Q266 467 235 451T181 411Q182 404 182 350L181 63Q232 24 298 24Q345 24 379 53Z" />
<glyph unicode="q" glyph-name="q" horiz-adv-x="576" d="M357 -225Q386 -225 398 -211T413 -174T416 -103V47Q361 -16 266 -16Q203 -16 152 15T72 105T42 239Q42 320 76 383T169 481T299 516Q330 516 384 503Q418 494 435 494Q458 494 473 510H501L502 -149Q502
-194 498 -217L561 -214V-255H357V-225ZM334 33T364 50T416 97V359Q416 421 390 450T301 479Q229 479 187 420T145 263Q145 198 164 146T218 64T302 33Q334 33 364 50Z" />
<glyph unicode="r" glyph-name="r" horiz-adv-x="433" d="M44 30Q73 30 85 44T100 81T103 152V380Q103 422 107 445L36 442V483H67Q105 483 122 489T154 510H183Q187 471 188 411Q213 452 259 484T356 516Q386 516 406 500T426 453Q426 437 414 421T378 405Q356
405 342 421T331 461Q293 462 255 432T189 352L190 106Q190 61 186 38L249 41V0H44V30Z" />
<glyph unicode="s" glyph-name="s" horiz-adv-x="463" d="M202 -16T163 -4T96 28L100 -7H58L52 165H83Q85 124 105 92T159 42T231 23Q274 23 307 43T341 102Q341 130 325 149T284 180T215 210Q162 230 130 247T75 295T52 371Q52 404 68 437T122 493T223 516Q254
516 286 506T347 473L345 511H387V336H355Q352 394 320 436T228 479Q183 479 157 457T130 403Q130 374 147 354T191 320T261 289Q313 268 345 250T399 203T422 131Q422 83 398 50T334 1T249 -16Q202 -16 163 -4Z" />
<glyph unicode="t" glyph-name="t" horiz-adv-x="387" d="M95 -16T96 168L98 458L21 457V500Q69 501 102 543T152 640H186V500H354V461L186 459Q185 306 185 247T184 181Q184 110 201 76T260 41Q286 41 311 57T356 101L383 79Q344 21 306 3T232 -16Q95 -16 96 168Z" />
<glyph unicode="u" glyph-name="u" horiz-adv-x="597" d="M170 -16T131 33T91 202V380Q91 422 95 445L26 442V483H57Q96 483 116 490T150 510H179V205Q179 117 203 76T285 35Q322 35 357 57T415 112V369Q415 416 420 445L348 442V483H379Q418 483 438 490T472
510H501L500 132Q500 74 496 38L568 42V0H425Q420 31 418 60Q385 27 341 6T255 -16Q170 -16 131 33Z" />
<glyph unicode="v" glyph-name="v" horiz-adv-x="505" d="M91 323Q51 415 49 462L6 459V500H190V470Q146 470 146 433Q146 406 167 359L244 183Q257 152 274 109H275Q278 119 283 131L298 174L378 393Q388 422 408 462L344 459V500H502V470Q481 470 466 456T439
415T405 335L274 -3H234L91 323Z" />
<glyph unicode="w" glyph-name="w" horiz-adv-x="801" d="M85 381Q66 435 59 462L6 459V500H218V470Q167 469 167 424Q167 401 180 362L258 125L288 214Q350 396 384 500H425L558 118L654 395Q671 446 684 462L626 459V500H800V470Q767 468 748 459T719 434T699
391L555 -3H515L384 375L254 -3H216L85 381Z" />
<glyph unicode="x" glyph-name="x" horiz-adv-x="530" d="M24 30Q52 37 69 53T119 111L219 241Q202 263 187 284T158 323L120 374Q85 420 69 461L22 459V500H228V470Q202 469 190 463T177 444Q177 423 209 379L267 300L358 410L374 430Q396 456 403 463L334 459V500H498V470Q460
459 438 440T369 363L292 271L430 100Q434 94 448 76T474 38L519 41V0H326V30Q363 30 363 51Q363 62 350 79L245 209L161 94Q135 59 115 38L192 41V0H24V30Z" />
<glyph unicode="y" glyph-name="y" horiz-adv-x="528" d="M88 -271T67 -255T46 -210Q46 -191 58 -177T91 -162Q111 -162 120 -176T130 -205Q130 -214 129 -219Q132 -221 140 -221Q153 -221 166 -211T191 -182Q214 -144 261 -11L105 323Q63 413 52 461L4 459V500H211V470H207Q160
467 160 430Q160 405 184 352L301 101Q331 186 387 352Q421 451 436 463L367 459V500H524V470Q490 457 472 429T431 340L306 -9Q270 -110 247 -161T194 -242T121 -271Q88 -271 67 -255Z" />
<glyph unicode="z" glyph-name="z" horiz-adv-x="511" d="M40 41L319 400Q335 421 351 440T376 465L188 462Q137 461 117 426T86 321H55L67 500H459V468L177 97Q165 82 154 69T125 41L318 38Q375 37 401 75T438 182H467L455 0H40V41Z" />
<glyph unicode="{" glyph-name="braceleft" horiz-adv-x="334" d="M195 -271T156 -220T116 -57Q116 -35 118 -2T121 45Q126 102 126 136Q126 189 105 213T30 237H7V289H30Q84 289 105 311T126 386Q126 420 121 465Q120 475 118 503T116 554Q116 627 132 671T187
738T294 760H322V726Q271 727 243 712T204 662T193 568Q193 546 199 484Q206 430 206 397Q206 339 174 306T94 264V262Q141 253 173 218T206 125Q206 92 199 25Q193 -49 193 -71Q193 -162 220 -203T322 -243V-271H294Q195 -271 156 -220Z" />
<glyph unicode="|" glyph-name="bar" horiz-adv-x="231" d="M79 760H154L150 -271H82L79 760Z" />
<glyph unicode="}" glyph-name="braceright" horiz-adv-x="334" d="M139 -271T178 -220T218 -57Q218 -35 216 -2T213 45Q208 102 208 136Q208 189 229 213T304 237H327V289H304Q250 289 229 311T208 386Q208 420 213 465Q214 475 216 503T218 554Q218 627 202
671T147 738T40 760H12V726Q63 727 91 712T130 662T141 568Q141 546 135 484Q128 430 128 397Q128 339 160 306T240 264V262Q193 253 161 218T128 125Q128 92 135 25Q141 -49 141 -71Q141 -162 114 -203T12 -243V-271H40Q139 -271 178 -220Z" />
<glyph unicode="~" glyph-name="asciitilde" horiz-adv-x="580" d="M358 231T334 241T280 272Q253 289 235 297T191 306Q154 306 128 295T68 258V321Q103 349 130 361T195 374Q233 374 257 364T311 332Q335 315 353 307T397 298Q459 298 512 346V283Q465 231 393
231Q358 231 334 241Z" />
<glyph unicode="&#xa0;" glyph-name="uni00A0" horiz-adv-x="263" />
<glyph unicode="&#xa1;" glyph-name="exclamdown" horiz-adv-x="243" d="M179 -143Q181 -171 166 -193T121 -216Q91 -216 77 -194T64 -143L103 270H140L179 -143ZM146 516T163 498T180 452Q180 425 163 406T121 387Q96 387 80 406T63 452Q63 479 80 497T122 516Q146
516 163 498Z" />
<glyph unicode="&#xa2;" glyph-name="cent" horiz-adv-x="531" d="M249 -16Q188 -8 140 25T64 113T36 241Q36 303 63 362T139 463T250 516V622H315L314 516Q364 513 402 496T461 452T482 394Q482 371 469 356T434 341Q412 341 401 355T389 386Q389 410 404 426Q393
457 362 468T299 480Q253 480 217 455T159 382T138 266Q138 199 159 147T220 65T310 35Q355 35 398 60T467 122L493 102Q460 50 410 20T308 -16L307 -134H249V-16Z" />
<glyph unicode="&#xa3;" glyph-name="sterling" horiz-adv-x="548" d="M67 -16T57 -5T47 21Q47 48 71 72T134 108Q160 151 160 199Q160 228 156 254T142 312H63V360H129Q111 428 111 497Q111 562 134 612T200 689T296 716Q351 716 386 698T436 653T452 600Q452
581 441 569T410 556Q391 556 382 568T372 595Q372 615 385 629Q378 650 358 664T304 678Q250 678 220 637T190 537Q190 501 194 469T208 393L214 360H366V312H223Q229 264 229 238Q229 181 177 117Q198 121 229 121Q262 121 292 112T360 84Q389 71 402 66T429
61Q452 61 466 77T482 124H514Q512 61 486 23T412 -16Q385 -16 359 -5T296 31Q256 56 229 68T171 80Q160 80 155 79Q150 40 129 12T84 -16Q67 -16 57 -5Z" />
<glyph unicode="&#xa4;" glyph-name="currency" horiz-adv-x="535" d="M452 189T416 139L475 72L435 40L384 105Q336 67 268 67Q200 67 153 104L102 40L61 72L120 139Q84 189 84 254Q84 322 123 374L61 444L102 477L156 409Q203 448 268 448Q332 448 381 409L435
477L475 444L413 374Q452 322 452 254Q452 189 416 139ZM321 106T343 157T366 271Q366 300 357 333T325 389T268 413Q233 413 211 390T180 333T170 271Q170 209 192 158T268 106Q321 106 343 157Z" />
<glyph unicode="&#xa5;" glyph-name="yen" horiz-adv-x="705" d="M249 33Q292 35 304 57T317 125V156V163L189 162V209L317 208V271L189 270V317L288 316L144 545Q98 616 90 658L28 656V700H286V667Q208 667 208 623Q208 597 233 558L264 509Q328 405 375 340H377Q412
409 484 544L505 583Q534 638 553 659L474 656V700H678V667Q631 664 600 635T531 538L413 315H534V272L404 271Q404 230 403 208L534 207V164L403 163Q403 119 404 119Q404 66 401 40L484 44V0H249V33Z" />
<glyph unicode="&#xa6;" glyph-name="brokenbar" horiz-adv-x="243" d="M84 760H159L155 385H87L84 760ZM84 101H159L155 -271H87L84 101Z" />
<glyph unicode="&#xa7;" glyph-name="section" horiz-adv-x="533" d="M205 -228T165 -209T104 -161T83 -100Q83 -80 95 -65T127 -49Q148 -49 158 -62T168 -94Q168 -100 165 -109T157 -125Q159 -150 189 -169T257 -189Q320 -189 350 -157T380 -84Q380 -52 361 -26T312
20T233 70Q171 106 132 134T66 205T38 304Q38 346 61 390T126 470Q84 518 84 586Q84 625 103 665T165 732T272 760Q323 760 364 742T428 695T451 636Q451 616 440 603T408 589Q388 589 378 602T368 630Q368 638 371 648T380 664Q370 689 342 705T276 722Q233 722
206 705T166 663T153 613Q153 581 172 555T221 509T300 459Q362 424 401 395T468 324T496 225Q496 182 473 137T408 58Q449 10 449 -53Q449 -90 430 -130T369 -199T261 -228Q205 -228 165 -209ZM403 102T411 130T420 188Q420 234 398 267T344 323T256 378Q218 399
194 414T149 447Q132 425 124 397T115 341Q115 295 137 261T191 204T279 151Q308 135 337 117T386 81Q403 102 411 130Z" />
<glyph unicode="&#xa8;" glyph-name="dieresis" horiz-adv-x="387" d="M90 611T75 628T60 670Q60 694 75 712T110 730Q131 730 145 713T160 670Q160 646 145 629T110 611Q90 611 75 628ZM257 611T242 628T227 670Q227 694 242 712T277 730Q298 730 312 713T327
670Q327 646 312 629T277 611Q257 611 242 628Z" />
<glyph unicode="&#xa9;" glyph-name="copyright" horiz-adv-x="877" d="M322 -50T232 1T93 143T44 348Q44 458 95 550T236 696T440 750Q553 750 643 696T784 550T835 348Q835 240 782 149T638 4T438 -50Q322 -50 232 1ZM537 0T612 48T728 175T769 348Q769 441
727 522T610 652T438 701Q343 701 269 652T153 522T111 348Q111 255 151 176T267 48T441 0Q537 0 612 48ZM376 102T321 134T234 222T202 346Q202 408 230 466T315 561T447 599Q483 599 517 588T578 558L574 594H624V426H584Q576 488 541 516T451 545Q412 545 376
523T318 459T296 358Q296 303 318 259T381 190T473 165Q508 165 549 185T617 239L647 204Q607 149 552 126T444 102Q376 102 321 134Z" />
<glyph unicode="&#xaa;" glyph-name="ordfeminine" horiz-adv-x="409" d="M105 380T80 400T54 455Q54 493 83 519T158 557T250 569V604Q250 642 239 662T188 683Q168 683 151 672T126 645Q135 635 135 620Q135 609 127 599T102 589Q87 589 79 599T70 624Q70 647
87 668T134 703T200 716Q313 716 312 597L311 485Q311 453 318 439T339 425Q347 425 357 434L368 415Q359 402 340 392T304 382Q260 382 250 425Q210 380 152 380Q105 380 80 400ZM170 422Q209 422 248 459L250 538Q200 538 163 519T125 465Q125 446 136 436T160
423L170 422Z" />
<glyph unicode="&#xab;" glyph-name="guillemotleft" horiz-adv-x="530" d="M337 24L140 277V279L335 517L303 548L32 277V273L306 -7L337 24ZM475 106L354 269V271L473 435L441 464L245 274V271L443 77L475 106Z" />
<glyph unicode="&#xac;" glyph-name="logicalnot" horiz-adv-x="592" d="M464 284L73 282V344L519 342V157H467L464 284Z" />
<glyph unicode="&#xad;" glyph-name="uni00AD" horiz-adv-x="293" d="M67 355H422V289L67 285V355Z" />
<glyph unicode="&#xae;" glyph-name="registered" horiz-adv-x="878" d="M321 -50T232 1T93 142T44 348Q44 458 95 550T236 696T440 750Q554 750 644 697T785 551T835 348Q835 239 782 148T638 4T438 -50Q321 -50 232 1ZM538 1T612 48T728 175T769 348Q769 441
728 522T610 652T438 701Q343 701 269 653T153 523T112 348Q112 254 152 175T266 49T441 1Q538 1 612 48ZM564 136T547 155T503 212Q482 242 428 323Q423 322 405 322Q379 322 373 323V225Q373 198 371 174L419 176L421 136H251V170Q274 170 284 180T297 205T299
250V511Q299 546 301 559L251 554V596Q377 601 436 600Q528 598 574 561T621 468Q621 428 592 390T500 333V332Q519 323 542 291Q579 235 600 209T635 174T665 166V132H578Q564 136 547 155ZM468 366T505 390T543 465Q543 509 511 533T432 558Q403 558 391 548T376
523T373 473V365H374Q406 363 423 364Q468 366 505 390Z" />
<glyph unicode="&#xaf;" glyph-name="overscore" horiz-adv-x="355" d="M45 700H310V644L45 640V700Z" />
<glyph unicode="&#xb0;" glyph-name="degree" horiz-adv-x="405" d="M155 404T120 425T66 481T47 561Q47 603 68 638T126 695T204 716Q250 716 285 696T339 640T358 561Q358 518 337 482T279 425T201 404Q155 404 120 425ZM243 456T269 487T295 561Q295 603 269
635T202 667Q162 667 136 635T110 561Q110 518 136 487T203 456Q243 456 269 487Z" />
<glyph unicode="&#xb1;" glyph-name="plusminus" horiz-adv-x="576" d="M255 300H65V360L255 359V516H319V359L510 358V302L319 301V135H255V300ZM65 55L510 59V3H65V55Z" />
<glyph unicode="&#xb2;" glyph-name="uni00B2" horiz-adv-x="385" d="M61 362T91 403T178 492Q242 545 242 608Q242 641 226 660T179 680Q155 680 138 669T117 640Q126 633 126 617Q126 607 119 597T96 588Q83 588 76 597T68 620Q68 641 83 663T126 701T192 716Q243
716 277 689T312 609Q312 575 289 540T195 454Q127 403 116 362L200 360L236 359Q267 359 281 367T296 400H321L317 306H61Q61 362 91 403Z" />
<glyph unicode="&#xb3;" glyph-name="uni00B3" horiz-adv-x="370" d="M139 305T111 318T69 352T54 395Q54 409 62 420T84 431Q100 432 108 422T116 399Q116 387 108 377Q111 359 129 349T172 339Q209 339 229 364T250 423Q250 456 232 482T167 510Q152 510 140
509V541H151Q202 541 218 563T234 613Q234 641 220 662T173 683Q149 683 133 672T113 643Q122 636 122 621Q122 611 115 601T92 592Q79 592 72 601T64 625Q64 644 78 665T119 701T183 716Q234 716 265 690T297 619Q297 592 275 566T213 530V529Q263 525 290 495T317
423Q317 372 279 339T177 305Q139 305 111 318Z" />
<glyph unicode="&#xb4;" glyph-name="acute" horiz-adv-x="252" d="M45 603L129 738Q148 765 170 765Q182 765 194 757Q206 745 206 729Q206 708 185 686L73 580L45 603Z" />
<glyph unicode="&#xb5;" glyph-name="uni00B5" horiz-adv-x="614" d="M94 -260T94 -173L95 500H179V236Q179 140 202 88T286 35Q321 35 353 55T406 106V500H491L490 141Q490 91 501 70T535 48Q553 48 577 65L588 50Q573 28 546 11T487 -6Q425 -6 411 56Q381 25
339 5T256 -16Q220 -16 192 5T143 65Q152 -27 161 -75T182 -160Q191 -187 191 -206Q191 -227 179 -243T146 -260Q94 -260 94 -173Z" />
<glyph unicode="&#xb6;" glyph-name="paragraph" horiz-adv-x="501" d="M174 409Q116 413 75 448T33 555Q33 600 53 633T105 683T175 700H402L400 -255H330L332 659L245 656L242 -255H172L174 409Z" />
<glyph unicode="&#xb7;" glyph-name="middot" horiz-adv-x="250" d="M101 264T84 282T67 328Q67 355 84 374T126 393Q151 393 167 374T184 328Q184 301 167 283T125 264Q101 264 84 282Z" />
<glyph unicode="&#xb8;" glyph-name="cedilla" horiz-adv-x="292" d="M45 -208Q100 -198 132 -179T165 -131Q165 -101 133 -101Q110 -101 88 -116L54 -100L83 8H139L112 -74Q141 -57 180 -57Q211 -57 229 -75T247 -123Q247 -176 187 -203T51 -241L45 -208Z" />
<glyph unicode="&#xb9;" glyph-name="uni00B9" horiz-adv-x="283" d="M76 329Q104 329 114 348T125 403V644H123L61 607L45 635L156 716H181L182 372Q182 344 180 333L231 335V301H76V329Z" />
<glyph unicode="&#xba;" glyph-name="ordmasculine" horiz-adv-x="419" d="M164 380T127 400T69 458T48 541Q48 590 69 630T128 693T212 716Q282 716 327 670T372 551Q372 502 351 463T293 402T209 380Q164 380 127 400ZM255 416T278 450T302 538Q302 599 280
641T211 683Q169 683 145 648T121 559Q121 497 144 457T214 416Q255 416 278 450Z" />
<glyph unicode="&#xbb;" glyph-name="guillemotright" horiz-adv-x="530" d="M193 24L390 277V279L195 517L227 548L498 277V273L224 -7L193 24ZM55 106L176 269V271L57 435L89 464L285 274V271L87 77L55 106Z" />
<glyph unicode="&#xbc;" glyph-name="onequarter" horiz-adv-x="757" d="M76 329Q104 329 114 348T125 403V644H123L61 607L45 635L156 716H181L182 372Q182 344 180 333L231 335V301H76V329ZM127 10L594 716L638 685L165 -16L127 10ZM553 29Q582 30 592 46T602
95V105H433V135L632 411H658L659 142L715 141V105H659V32L700 34V0H553V29ZM602 314H601L480 145L602 143V314Z" />
<glyph unicode="&#xbd;" glyph-name="onehalf" horiz-adv-x="785" d="M76 329Q104 329 114 348T125 403V644H123L61 607L45 635L156 716H181L182 372Q182 344 180 333L231 335V301H76V329ZM127 10L594 716L638 685L165 -16L127 10ZM484 57T514 98T601 187Q665
240 665 303Q665 336 649 355T602 375Q578 375 561 364T540 335Q549 328 549 312Q549 302 542 292T519 283Q506 283 499 292T491 315Q491 336 506 358T549 396T615 411Q666 411 700 384T735 304Q735 270 712 235T618 149Q550 98 539 57L623 55L659 54Q690 54 704
62T719 95H744L740 1H484Q484 57 514 98Z" />
<glyph unicode="&#xbe;" glyph-name="threequarters" horiz-adv-x="796" d="M139 305T111 318T69 352T54 395Q54 409 62 420T84 431Q100 432 108 422T116 399Q116 387 108 377Q111 359 129 349T172 339Q209 339 229 364T250 423Q250 456 232 482T167 510Q152 510
140 509V541H151Q202 541 218 563T234 613Q234 641 220 662T173 683Q149 683 133 672T113 643Q122 636 122 621Q122 611 115 601T92 592Q79 592 72 601T64 625Q64 644 78 665T119 701T183 716Q234 716 265 690T297 619Q297 592 275 566T213 530V529Q263 525 290
495T317 423Q317 372 279 339T177 305Q139 305 111 318ZM166 10L633 716L677 685L204 -16L166 10ZM592 29Q621 30 631 46T641 95V105H472V135L671 411H697L698 142L754 141V105H698V32L739 34V0H592V29ZM641 314H640L519 145L641 143V314Z" />
<glyph unicode="&#xbf;" glyph-name="questiondown" horiz-adv-x="467" d="M277 312T300 296T324 245Q324 219 305 197T246 139Q209 108 186 84T145 25T128 -51Q128 -108 157 -142T250 -177Q277 -177 301 -166T341 -139T360 -106Q348 -87 348 -67Q348 -52 360
-38T394 -24Q415 -25 426 -39T437 -77Q437 -107 412 -139T341 -194T235 -216Q165 -216 120 -193T54 -132T33 -51Q33 -12 53 22T102 81T175 141Q219 176 238 195T257 233Q257 247 247 256T215 266Q195 266 178 259L166 294Q181 303 203 307T244 312Q277 312 300
296ZM259 516T275 500T292 457Q292 433 276 416T238 398Q216 398 200 415T184 457Q184 482 199 499T238 516Q259 516 275 500Z" />
<glyph unicode="&#xc0;" glyph-name="Agrave" horiz-adv-x="626" d="M-6 33Q19 33 34 44T58 74T81 130L91 158L297 719H321L544 150Q555 123 563 92T570 40L638 44V0H409V33Q468 34 468 81Q468 100 458 128L423 222L163 216Q148 175 128 109Q118 76 103 40L181
44V0H-6V33ZM409 259L338 450L293 573H291L249 460L195 308L178 259H409ZM204 849Q172 869 172 893Q172 906 178 914Q181 918 188 922T206 927Q224 927 245 909L371 789L349 760L204 849Z" />
<glyph unicode="&#xc1;" glyph-name="Aacute" horiz-adv-x="626" d="M-6 33Q19 33 34 44T58 74T81 130L91 158L297 719H321L544 150Q555 123 563 92T570 40L638 44V0H409V33Q468 34 468 81Q468 100 458 128L423 222L163 216Q148 175 128 109Q118 76 103 40L181
44V0H-6V33ZM409 259L338 450L293 573H291L249 460L195 308L178 259H409ZM422 849Q454 869 454 893Q454 906 448 914Q445 918 438 922T420 927Q402 927 381 909L255 789L277 760L422 849Z" />
<glyph unicode="&#xc2;" glyph-name="Acircumflex" horiz-adv-x="626" d="M-6 33Q19 33 34 44T58 74T81 130L91 158L297 719H321L544 150Q555 123 563 92T570 40L638 44V0H409V33Q468 34 468 81Q468 100 458 128L423 222L163 216Q148 175 128 109Q118 76 103 40L181
44V0H-6V33ZM409 259L338 450L293 573H291L249 460L195 308L178 259H409ZM315 844H313L143 757L123 789L317 931H319L503 790L481 756L315 844Z" />
<glyph unicode="&#xc3;" glyph-name="Atilde" horiz-adv-x="626" d="M-6 33Q19 33 34 44T58 74T81 130L91 158L297 719H321L544 150Q555 123 563 92T570 40L638 44V0H409V33Q468 34 468 81Q468 100 458 128L423 222L163 216Q148 175 128 109Q118 76 103 40L181
44V0H-6V33ZM409 259L338 450L293 573H291L249 460L195 308L178 259H409ZM358 777T337 788T287 819Q267 834 255 841T228 848Q208 848 192 834T154 788L120 807Q138 852 171 881T236 910Q264 910 284 900T330 870Q349 855 363 848T393 840Q418 840 437 857T474
905L506 889Q486 831 455 804T387 777Q358 777 337 788Z" />
<glyph unicode="&#xc4;" glyph-name="Adieresis" horiz-adv-x="626" d="M-6 33Q19 33 34 44T58 74T81 130L91 158L297 719H321L544 150Q555 123 563 92T570 40L638 44V0H409V33Q468 34 468 81Q468 100 458 128L423 222L163 216Q148 175 128 109Q118 76 103 40L181
44V0H-6V33ZM409 259L338 450L293 573H291L249 460L195 308L178 259H409ZM378 774T363 792T347 837Q347 863 363 882T401 901Q425 901 440 882T455 837Q455 811 439 793T400 774Q378 774 363 792ZM198 774T183 792T167 837Q167 863 183 882T221 901Q245 901 260
882T275 837Q275 811 259 793T220 774Q198 774 183 792Z" />
<glyph unicode="&#xc5;" glyph-name="Aring" horiz-adv-x="626" d="M-6 33Q19 33 34 44T58 74T81 130L91 158L297 719H321L544 150Q555 123 563 92T570 40L638 44V0H409V33Q468 34 468 81Q468 100 458 128L423 222L163 216Q148 175 128 109Q118 76 103 40L181
44V0H-6V33ZM409 259L338 450L293 573H291L249 460L195 308L178 259H409ZM267 715T233 742T199 823Q199 856 215 881T257 921T312 936Q358 936 392 908T427 828Q427 795 411 769T368 729T314 715Q267 715 233 742ZM338 750T353 769T369 818Q369 858 354 880T312
902Q287 902 272 882T257 830Q257 794 273 772T316 750Q338 750 353 769Z" />
<glyph unicode="&#xc6;" glyph-name="AE" horiz-adv-x="949" d="M-21 33Q3 33 23 46T56 77T91 125L452 660L362 656V700H863L868 525H835Q835 607 800 637T700 665L614 663Q578 662 562 650T542 615T538 544V383H612Q660 383 683 388T718 414T730 477H763V259H730Q730
302 719 320T685 343T613 347L538 343V118Q538 66 535 40L732 37Q799 36 834 73T870 195H904L898 0H382V36H390Q427 39 439 60T451 130V221L208 216L90 40L166 44V0H-21V33ZM451 259V582L236 259H451Z" />
<glyph unicode="&#xc7;" glyph-name="Ccedilla" horiz-adv-x="699" d="M288 -16T211 31T90 159T46 339Q46 437 85 523T203 662T393 716Q503 716 595 655L590 709H644V477H608Q598 570 543 622T400 675Q329 675 271 636T178 523T144 354Q144 262 180 190T277 77T412
36Q479 36 541 66T643 151L669 130Q611 49 536 17T386 -16Q288 -16 211 31ZM378 -222Q431 -213 465 -191T500 -141Q500 -125 491 -117T468 -109Q447 -109 424 -123L388 -106L417 8H475L448 -77Q461 -69 479 -65T513 -61Q550 -61 570 -81T590 -132Q590 -185 524
-217T384 -260L378 -222Z" />
<glyph unicode="&#xc8;" glyph-name="Egrave" horiz-adv-x="622" d="M55 33Q90 34 105 49T122 84T124 156V588Q124 630 127 660L55 656V700H536L541 525H508Q508 607 473 637T373 665L287 663Q251 662 235 650T215 615T211 544V384L399 383L392 469H436V259H403Q403
296 394 315T367 341T315 348L284 347L211 344V115Q211 63 208 37L399 40Q469 41 506 75T543 195H577L571 0H55V33ZM218 849Q186 869 186 893Q186 906 192 914Q195 918 202 922T220 927Q238 927 259 909L385 789L363 760L218 849Z" />
<glyph unicode="&#xc9;" glyph-name="Eacute" horiz-adv-x="622" d="M55 33Q90 34 105 49T122 84T124 156V588Q124 630 127 660L55 656V700H536L541 525H508Q508 607 473 637T373 665L287 663Q251 662 235 650T215 615T211 544V384L399 383L392 469H436V259H403Q403
296 394 315T367 341T315 348L284 347L211 344V115Q211 63 208 37L399 40Q469 41 506 75T543 195H577L571 0H55V33ZM436 849Q468 869 468 893Q468 906 462 914Q459 918 452 922T434 927Q416 927 395 909L269 789L291 760L436 849Z" />
<glyph unicode="&#xca;" glyph-name="Ecircumflex" horiz-adv-x="622" d="M55 33Q90 34 105 49T122 84T124 156V588Q124 630 127 660L55 656V700H536L541 525H508Q508 607 473 637T373 665L287 663Q251 662 235 650T215 615T211 544V384L399 383L392 469H436V259H403Q403
296 394 315T367 341T315 348L284 347L211 344V115Q211 63 208 37L399 40Q469 41 506 75T543 195H577L571 0H55V33ZM329 844H327L157 757L137 789L331 931H333L517 790L495 756L329 844Z" />
<glyph unicode="&#xcb;" glyph-name="Edieresis" horiz-adv-x="622" d="M55 33Q90 34 105 49T122 84T124 156V588Q124 630 127 660L55 656V700H536L541 525H508Q508 607 473 637T373 665L287 663Q251 662 235 650T215 615T211 544V384L399 383L392 469H436V259H403Q403
296 394 315T367 341T315 348L284 347L211 344V115Q211 63 208 37L399 40Q469 41 506 75T543 195H577L571 0H55V33ZM394 774T379 792T363 837Q363 863 379 882T417 901Q441 901 456 882T471 837Q471 811 455 793T416 774Q394 774 379 792ZM215 774T200 792T184
837Q184 863 200 882T238 901Q262 901 277 882T292 837Q292 811 276 793T237 774Q215 774 200 792Z" />
<glyph unicode="&#xcc;" glyph-name="Igrave" horiz-adv-x="335" d="M55 33Q90 34 105 49T122 84T124 156V588Q124 630 127 660L55 656V700H280V667Q245 666 230 651T213 616T211 544V119Q211 66 208 40L280 44V0H55V33ZM62 849Q30 869 30 893Q30 906 36 914Q39
918 46 922T64 927Q82 927 103 909L229 789L207 760L62 849Z" />
<glyph unicode="&#xcd;" glyph-name="Iacute" horiz-adv-x="335" d="M55 33Q90 34 105 49T122 84T124 156V588Q124 630 127 660L55 656V700H280V667Q245 666 230 651T213 616T211 544V119Q211 66 208 40L280 44V0H55V33ZM280 849Q312 869 312 893Q312 906 306
914Q303 918 296 922T278 927Q260 927 239 909L113 789L135 760L280 849Z" />
<glyph unicode="&#xce;" glyph-name="Icircumflex" horiz-adv-x="335" d="M19 789L174 931H176L323 790L300 760L172 844H171L44 760L19 789ZM55 33Q90 34 105 49T122 84T124 156V588Q124 630 127 660L55 656V700H280V667Q245 666 230 651T213 616T211 544V119Q211
66 208 40L280 44V0H55V33Z" />
<glyph unicode="&#xcf;" glyph-name="Idieresis" horiz-adv-x="335" d="M55 33Q90 34 105 49T122 84T124 156V588Q124 630 127 660L55 656V700H280V667Q245 666 230 651T213 616T211 544V119Q211 66 208 40L280 44V0H55V33ZM233 774T218 792T202 837Q202 863 218
882T256 901Q280 901 295 882T310 837Q310 811 294 793T255 774Q233 774 218 792ZM73 774T58 792T42 837Q42 863 58 882T96 901Q120 901 135 882T150 837Q150 811 134 793T95 774Q73 774 58 792Z" />
<glyph unicode="&#xd0;" glyph-name="Eth" horiz-adv-x="746" d="M480 702T590 613T700 349Q700 255 656 175T526 48T319 0H56V33Q91 34 106 49T123 84T125 156V335H19V377H125V588Q125 630 128 660L56 656V700L292 701Q480 702 590 613ZM400 38T465 79T566 192T602
353Q602 499 522 581T281 664Q246 664 231 650T214 616T212 544V377H393V335H212V118Q212 66 209 40Q244 38 316 38Q400 38 465 79Z" />
<glyph unicode="&#xd1;" glyph-name="Ntilde" horiz-adv-x="762" d="M168 567H167L170 139Q170 72 168 40L240 44V0H57V33Q97 33 110 56T123 112L124 660L57 656V700H176L602 130H603L604 588Q604 630 607 660L535 656V700H719V667Q689 666 675 656T656 627T652
579V544L650 -16H602L168 567ZM440 777T419 788T369 819Q349 834 337 841T310 848Q290 848 274 834T236 788L202 807Q220 852 253 881T318 910Q346 910 366 900T412 870Q431 855 445 848T475 840Q500 840 519 857T556 905L588 889Q568 831 537 804T469 777Q440
777 419 788Z" />
<glyph unicode="&#xd2;" glyph-name="Ograve" horiz-adv-x="794" d="M282 -16T202 37T84 173T46 350Q46 439 85 523T203 661T394 716Q509 716 589 662T710 523T750 350Q750 262 711 178T593 39T402 -16Q282 -16 202 37ZM482 25T537 69T621 184T650 331Q650 416
619 495T529 625T391 676Q313 676 257 632T173 516T144 368Q144 289 173 210T261 78T404 25Q482 25 537 69ZM280 849Q248 869 248 893Q248 906 254 914Q257 918 264 922T282 927Q300 927 321 909L447 789L425 760L280 849Z" />
<glyph unicode="&#xd3;" glyph-name="Oacute" horiz-adv-x="794" d="M282 -16T202 37T84 173T46 350Q46 439 85 523T203 661T394 716Q509 716 589 662T710 523T750 350Q750 262 711 178T593 39T402 -16Q282 -16 202 37ZM482 25T537 69T621 184T650 331Q650 416
619 495T529 625T391 676Q313 676 257 632T173 516T144 368Q144 289 173 210T261 78T404 25Q482 25 537 69ZM498 849Q530 869 530 893Q530 906 524 914Q521 918 514 922T496 927Q478 927 457 909L331 789L353 760L498 849Z" />
<glyph unicode="&#xd4;" glyph-name="Ocircumflex" horiz-adv-x="794" d="M282 -16T202 37T84 173T46 350Q46 439 85 523T203 661T394 716Q509 716 589 662T710 523T750 350Q750 262 711 178T593 39T402 -16Q282 -16 202 37ZM482 25T537 69T621 184T650 331Q650
416 619 495T529 625T391 676Q313 676 257 632T173 516T144 368Q144 289 173 210T261 78T404 25Q482 25 537 69ZM391 844H389L219 757L199 789L393 931H395L579 790L557 756L391 844Z" />
<glyph unicode="&#xd5;" glyph-name="Otilde" horiz-adv-x="794" d="M282 -16T202 37T84 173T46 350Q46 439 85 523T203 661T394 716Q509 716 589 662T710 523T750 350Q750 262 711 178T593 39T402 -16Q282 -16 202 37ZM482 25T537 69T621 184T650 331Q650 416
619 495T529 625T391 676Q313 676 257 632T173 516T144 368Q144 289 173 210T261 78T404 25Q482 25 537 69ZM434 777T413 788T363 819Q343 834 331 841T304 848Q284 848 268 834T230 788L196 807Q214 852 247 881T312 910Q340 910 360 900T406 870Q425 855 439
848T469 840Q494 840 513 857T550 905L582 889Q562 831 531 804T463 777Q434 777 413 788Z" />
<glyph unicode="&#xd6;" glyph-name="Odieresis" horiz-adv-x="794" d="M282 -16T202 37T84 173T46 350Q46 439 85 523T203 661T394 716Q509 716 589 662T710 523T750 350Q750 262 711 178T593 39T402 -16Q282 -16 202 37ZM482 25T537 69T621 184T650 331Q650
416 619 495T529 625T391 676Q313 676 257 632T173 516T144 368Q144 289 173 210T261 78T404 25Q482 25 537 69ZM465 774T450 792T434 837Q434 863 450 882T488 901Q512 901 527 882T542 837Q542 811 526 793T487 774Q465 774 450 792ZM285 774T270 792T254 837Q254
863 270 882T308 901Q332 901 347 882T362 837Q362 811 346 793T307 774Q285 774 270 792Z" />
<glyph unicode="&#xd7;" glyph-name="multiply" horiz-adv-x="552" d="M274 268L97 93L54 136L231 310L56 484L103 529L277 355L459 534L500 491L319 313L500 134L455 89L274 268Z" />
<glyph unicode="&#xd8;" glyph-name="Oslash" horiz-adv-x="794" d="M682 587T715 509T749 350Q749 262 710 178T592 39T401 -16Q314 -16 248 13L193 -80L145 -50L197 40Q121 89 83 173T45 350Q45 439 84 523T202 661T393 716Q488 716 565 676L611 755L665 721L618
640Q682 587 715 509ZM143 297T166 226T234 103L533 621Q472 676 390 676Q312 676 256 632T172 516T143 368Q143 297 166 226ZM481 25T536 69T620 184T649 331Q649 396 631 459T577 572L278 64Q333 25 403 25Q481 25 536 69Z" />
<glyph unicode="&#xd9;" glyph-name="Ugrave" horiz-adv-x="752" d="M275 -16T214 21T126 136T99 341V544Q99 608 103 660L31 657V700H255V667Q211 667 199 644T187 588V336Q187 249 202 186T263 82T394 41Q498 41 548 112T601 307L604 588Q604 630 607 660L536
656V700H722V667Q686 666 671 651T654 616T652 544L650 312Q649 167 586 76T381 -16Q275 -16 214 21ZM279 849Q247 869 247 893Q247 906 253 914Q256 918 263 922T281 927Q299 927 320 909L446 789L424 760L279 849Z" />
<glyph unicode="&#xda;" glyph-name="Uacute" horiz-adv-x="752" d="M275 -16T214 21T126 136T99 341V544Q99 608 103 660L31 657V700H255V667Q211 667 199 644T187 588V336Q187 249 202 186T263 82T394 41Q498 41 548 112T601 307L604 588Q604 630 607 660L536
656V700H722V667Q686 666 671 651T654 616T652 544L650 312Q649 167 586 76T381 -16Q275 -16 214 21ZM497 849Q529 869 529 893Q529 906 523 914Q520 918 513 922T495 927Q477 927 456 909L330 789L352 760L497 849Z" />
<glyph unicode="&#xdb;" glyph-name="Ucircumflex" horiz-adv-x="752" d="M275 -16T214 21T126 136T99 341V544Q99 608 103 660L31 657V700H255V667Q211 667 199 644T187 588V336Q187 249 202 186T263 82T394 41Q498 41 548 112T601 307L604 588Q604 630 607 660L536
656V700H722V667Q686 666 671 651T654 616T652 544L650 312Q649 167 586 76T381 -16Q275 -16 214 21ZM390 844H388L218 757L198 789L392 931H394L578 790L556 756L390 844Z" />
<glyph unicode="&#xdc;" glyph-name="Udieresis" horiz-adv-x="752" d="M275 -16T214 21T126 136T99 341V544Q99 608 103 660L31 657V700H255V667Q211 667 199 644T187 588V336Q187 249 202 186T263 82T394 41Q498 41 548 112T601 307L604 588Q604 630 607 660L536
656V700H722V667Q686 666 671 651T654 616T652 544L650 312Q649 167 586 76T381 -16Q275 -16 214 21ZM461 774T446 792T430 837Q430 863 446 882T484 901Q508 901 523 882T538 837Q538 811 522 793T483 774Q461 774 446 792ZM281 774T266 792T250 837Q250 863 266
882T304 901Q328 901 343 882T358 837Q358 811 342 793T303 774Q281 774 266 792Z" />
<glyph unicode="&#xdd;" glyph-name="Yacute" horiz-adv-x="634" d="M215 33Q258 35 270 57T283 125V156L284 270L110 545Q64 616 56 658L-6 656V700H252V667Q174 667 174 623Q174 597 199 558L230 509Q294 405 341 340H343Q378 409 450 544L471 583Q500 638 519
659L440 656V700H644V667Q597 664 566 635T497 538L371 300Q370 251 370 196T370 119Q370 66 367 40L450 44V0H215V33ZM440 849Q472 869 472 893Q472 906 466 914Q463 918 456 922T438 927Q420 927 399 909L273 789L295 760L440 849Z" />
<glyph unicode="&#xde;" glyph-name="Thorn" horiz-adv-x="596" d="M211 119Q211 66 208 40L280 44V0H55V33Q90 34 105 49T122 84T124 156V588Q124 630 127 660L55 656V700H280V667Q237 666 224 645T211 578L265 579Q570 579 570 378Q570 322 539 273T434 193T237
161H211V119ZM249 541T211 539V203Q238 198 276 200Q373 202 423 250T473 377Q473 457 422 499T271 541Q249 541 211 539Z" />
<glyph unicode="&#xdf;" glyph-name="germandbls" horiz-adv-x="681" d="M459 -16T426 -8T368 16L371 -8H329L323 164H354Q358 100 391 62T481 23Q517 23 543 44T569 104Q569 129 554 148T517 180T456 213Q409 235 381 253T332 301T311 371Q311 440 358 479T493
516Q495 638 452 677T350 717Q259 717 220 639Q205 607 199 564T193 458L194 106Q194 61 190 38L253 41V0H49V30Q78 30 90 44T105 81T108 152L107 457L25 455V500H107V501Q107 576 134 634T216 726T348 760Q398 760 451 740T544 664T579 507Q579 496 576 478Q528
481 517 481Q390 481 390 403Q390 365 420 341T510 286Q556 263 584 244T633 198T653 132Q653 59 608 22T483 -16Q459 -16 426 -8Z" />
<glyph unicode="&#xe0;" glyph-name="agrave" horiz-adv-x="516" d="M111 -16T73 17T34 103Q34 161 80 201T197 260T339 279V341Q339 406 320 442T239 479Q208 479 180 466T139 427Q152 413 152 389Q152 374 141 361T109 347Q88 347 76 360T64 396Q64 429 89 456T160
500T262 516Q346 516 386 472T425 331L424 106Q424 74 420 38L491 42V0H348Q345 15 341 57Q268 -16 184 -16Q111 -16 73 17ZM245 41T276 55T339 100Q338 115 338 151L339 245Q257 242 193 212T129 118Q129 81 151 61T207 41Q245 41 276 55ZM192 719Q171 741 171
762Q171 778 183 790Q195 798 207 798Q229 798 248 771L332 636L304 613L192 719Z" />
<glyph unicode="&#xe1;" glyph-name="aacute" horiz-adv-x="516" d="M111 -16T73 17T34 103Q34 161 80 201T197 260T339 279V341Q339 406 320 442T239 479Q208 479 180 466T139 427Q152 413 152 389Q152 374 141 361T109 347Q88 347 76 360T64 396Q64 429 89 456T160
500T262 516Q346 516 386 472T425 331L424 106Q424 74 420 38L491 42V0H348Q345 15 341 57Q268 -16 184 -16Q111 -16 73 17ZM245 41T276 55T339 100Q338 115 338 151L339 245Q257 242 193 212T129 118Q129 81 151 61T207 41Q245 41 276 55ZM310 719Q331 741 331
762Q331 778 319 790Q307 798 295 798Q273 798 254 771L170 636L198 613L310 719Z" />
<glyph unicode="&#xe2;" glyph-name="acircumflex" horiz-adv-x="516" d="M111 -16T73 17T34 103Q34 161 80 201T197 260T339 279V341Q339 406 320 442T239 479Q208 479 180 466T139 427Q152 413 152 389Q152 374 141 361T109 347Q88 347 76 360T64 396Q64 429
89 456T160 500T262 516Q346 516 386 472T425 331L424 106Q424 74 420 38L491 42V0H348Q345 15 341 57Q268 -16 184 -16Q111 -16 73 17ZM245 41T276 55T339 100Q338 115 338 151L339 245Q257 242 193 212T129 118Q129 81 151 61T207 41Q245 41 276 55ZM252 725H250L121
623L96 652L255 811H257L406 648L379 616L252 725Z" />
<glyph unicode="&#xe3;" glyph-name="atilde" horiz-adv-x="516" d="M111 -16T73 17T34 103Q34 161 80 201T197 260T339 279V341Q339 406 320 442T239 479Q208 479 180 466T139 427Q152 413 152 389Q152 374 141 361T109 347Q88 347 76 360T64 396Q64 429 89 456T160
500T262 516Q346 516 386 472T425 331L424 106Q424 74 420 38L491 42V0H348Q345 15 341 57Q268 -16 184 -16Q111 -16 73 17ZM245 41T276 55T339 100Q338 115 338 151L339 245Q257 242 193 212T129 118Q129 81 151 61T207 41Q245 41 276 55ZM294 645T276 653T234
677Q218 688 208 693T186 699Q166 699 146 689T113 657L83 674Q96 710 127 735T188 760Q210 760 226 752T264 730Q280 718 292 713T317 707Q339 707 358 720T390 755L419 740Q404 694 375 670T317 645Q294 645 276 653Z" />
<glyph unicode="&#xe4;" glyph-name="adieresis" horiz-adv-x="516" d="M111 -16T73 17T34 103Q34 161 80 201T197 260T339 279V341Q339 406 320 442T239 479Q208 479 180 466T139 427Q152 413 152 389Q152 374 141 361T109 347Q88 347 76 360T64 396Q64 429 89
456T160 500T262 516Q346 516 386 472T425 331L424 106Q424 74 420 38L491 42V0H348Q345 15 341 57Q268 -16 184 -16Q111 -16 73 17ZM245 41T276 55T339 100Q338 115 338 151L339 245Q257 242 193 212T129 118Q129 81 151 61T207 41Q245 41 276 55ZM139 609T125
626T110 668Q110 693 125 710T161 728Q182 728 196 711T210 668Q210 643 195 626T160 609Q139 609 125 626ZM306 609T292 626T277 668Q277 693 292 710T328 728Q349 728 363 711T377 668Q377 643 362 626T327 609Q306 609 292 626Z" />
<glyph unicode="&#xe5;" glyph-name="aring" horiz-adv-x="516" d="M111 -16T73 17T34 103Q34 161 80 201T197 260T339 279V341Q339 406 320 442T239 479Q208 479 180 466T139 427Q152 413 152 389Q152 374 141 361T109 347Q88 347 76 360T64 396Q64 429 89 456T160
500T262 516Q346 516 386 472T425 331L424 106Q424 74 420 38L491 42V0H348Q345 15 341 57Q268 -16 184 -16Q111 -16 73 17ZM245 41T276 55T339 100Q338 115 338 151L339 245Q257 242 193 212T129 118Q129 81 151 61T207 41Q245 41 276 55ZM212 603T183 627T153
697Q153 739 182 766T250 794Q290 794 319 770T349 700Q349 658 319 631T252 603Q212 603 183 627ZM272 634T284 650T296 693Q296 725 284 744T251 763Q231 763 219 747T206 703Q206 673 219 654T254 634Q272 634 284 650Z" />
<glyph unicode="&#xe6;" glyph-name="ae" horiz-adv-x="777" d="M113 -16T74 16T34 100Q34 158 80 198T195 257T336 275V336Q336 403 317 441T237 479Q204 479 176 463T138 420Q144 415 147 405T151 387Q151 373 141 359T110 345Q90 345 78 357T66 393Q66 424
89 452T154 498T252 516Q301 516 336 494T390 430Q419 470 460 493T553 516Q634 516 681 463T730 295L425 289Q424 276 424 252Q424 150 465 93T573 35Q653 35 711 118L736 98Q660 -16 549 -16Q423 -16 371 79H370Q301 -16 180 -16Q113 -16 74 16ZM640 331Q640
396 621 436T549 477Q449 477 432 331H640ZM282 35T345 107Q336 184 335 241Q253 237 191 207T129 115Q129 80 150 62T199 41Q282 35 345 107Z" />
<glyph unicode="&#xe7;" glyph-name="ccedilla" horiz-adv-x="532" d="M220 -16T164 15T74 104T41 241Q41 311 74 374T167 477T302 516Q356 516 398 499T463 454T487 393Q487 370 474 355T438 340Q416 340 405 354T394 385Q394 410 409 425Q398 456 367 467T304
479Q258 479 222 454T164 381T143 266Q143 199 164 147T225 66T315 36Q360 36 403 60T472 122L498 102Q461 44 403 14T288 -16Q220 -16 164 15ZM241 -208Q296 -198 328 -179T361 -131Q361 -101 329 -101Q306 -101 284 -116L250 -100L279 8H335L308 -74Q337 -57
376 -57Q407 -57 425 -75T443 -123Q443 -176 383 -203T247 -241L241 -208Z" />
<glyph unicode="&#xe8;" glyph-name="egrave" horiz-adv-x="542" d="M217 -16T162 16T74 109T42 249Q42 319 74 380T163 479T294 516Q351 516 397 491T470 417T497 295L145 289Q144 169 184 102T310 35Q356 35 404 59T479 118L503 98Q465 40 405 12T286 -16Q217
-16 162 16ZM403 331Q403 391 376 434T295 477Q171 477 148 331H403ZM221 686Q200 708 200 729Q200 745 212 757Q224 765 236 765Q258 765 277 738L361 603L333 580L221 686Z" />
<glyph unicode="&#xe9;" glyph-name="eacute" horiz-adv-x="542" d="M217 -16T162 16T74 109T42 249Q42 319 74 380T163 479T294 516Q351 516 397 491T470 417T497 295L145 289Q144 169 184 102T310 35Q356 35 404 59T479 118L503 98Q465 40 405 12T286 -16Q217
-16 162 16ZM403 331Q403 391 376 434T295 477Q171 477 148 331H403ZM339 686Q360 708 360 729Q360 745 348 757Q336 765 324 765Q302 765 283 738L199 603L227 580L339 686Z" />
<glyph unicode="&#xea;" glyph-name="ecircumflex" horiz-adv-x="542" d="M217 -16T162 16T74 109T42 249Q42 319 74 380T163 479T294 516Q351 516 397 491T470 417T497 295L145 289Q144 169 184 102T310 35Q356 35 404 59T479 118L503 98Q465 40 405 12T286 -16Q217
-16 162 16ZM403 331Q403 391 376 434T295 477Q171 477 148 331H403ZM281 692H279L150 590L125 619L284 778H286L435 615L408 583L281 692Z" />
<glyph unicode="&#xeb;" glyph-name="edieresis" horiz-adv-x="542" d="M217 -16T162 16T74 109T42 249Q42 319 74 380T163 479T294 516Q351 516 397 491T470 417T497 295L145 289Q144 169 184 102T310 35Q356 35 404 59T479 118L503 98Q465 40 405 12T286 -16Q217
-16 162 16ZM403 331Q403 391 376 434T295 477Q171 477 148 331H403ZM179 609T165 626T150 668Q150 693 165 710T201 728Q222 728 236 711T250 668Q250 643 235 626T200 609Q179 609 165 626ZM346 609T332 626T317 668Q317 693 332 710T368 728Q389 728 403 711T417
668Q417 643 402 626T367 609Q346 609 332 626Z" />
<glyph unicode="&#xec;" glyph-name="igrave" horiz-adv-x="281" d="M44 30Q73 30 85 44T100 81T103 152V380Q103 409 107 445L36 441V483Q95 483 120 490T160 510H189V106Q189 61 185 38L248 41V0H44V30ZM82 686Q61 708 61 729Q61 745 73 757Q85 765 97 765Q119
765 138 738L222 603L194 580L82 686Z" />
<glyph unicode="&#xed;" glyph-name="iacute" horiz-adv-x="281" d="M44 30Q73 30 85 44T100 81T103 152V380Q103 409 107 445L36 441V483Q95 483 120 490T160 510H189V106Q189 61 185 38L248 41V0H44V30ZM200 686Q221 708 221 729Q221 745 209 757Q197 765 185
765Q163 765 144 738L60 603L88 580L200 686Z" />
<glyph unicode="&#xee;" glyph-name="icircumflex" horiz-adv-x="281" d="M127 683H125L25 590L-6 619L129 778H131L258 615L230 587L127 683ZM44 30Q73 30 85 44T100 81T103 152V380Q103 409 107 445L36 441V483Q95 483 120 490T160 510H189V106Q189 61 185 38L248
41V0H44V30Z" />
<glyph unicode="&#xef;" glyph-name="idieresis" horiz-adv-x="281" d="M44 30Q73 30 85 44T100 81T103 152V380Q103 409 107 445L36 441V483Q95 483 120 490T160 510H189V106Q189 61 185 38L248 41V0H44V30ZM47 609T33 626T18 668Q18 693 33 710T69 728Q90 728
104 711T118 668Q118 643 103 626T68 609Q47 609 33 626ZM187 609T173 626T158 668Q158 693 173 710T209 728Q230 728 244 711T258 668Q258 643 243 626T208 609Q187 609 173 626Z" />
<glyph unicode="&#xf0;" glyph-name="eth" horiz-adv-x="559" d="M199 -16T150 13T72 96T43 222Q43 295 70 358T147 458T265 496Q306 496 344 480T403 430H405Q388 497 347 562T243 669L182 592L146 622L204 691Q155 714 103 718L107 760Q174 756 237 729L291
793L320 766L276 710Q382 649 442 530T502 269Q502 143 441 64T259 -16Q199 -16 150 13ZM313 24T344 48T394 119T413 233Q413 319 381 387T278 455Q215 455 179 394T143 243Q143 140 180 82T275 24Q313 24 344 48Z" />
<glyph unicode="&#xf1;" glyph-name="ntilde" horiz-adv-x="607" d="M44 30Q73 30 85 44T100 80T103 152L104 380Q104 422 108 445L37 441V483Q96 483 118 489T155 510H184Q186 491 188 449Q222 479 265 497T351 516Q438 516 478 462T518 292V106Q518 61 514 38L577
41V0H373V30Q402 30 414 44T429 81T432 152V292Q431 378 404 421T319 465Q283 465 248 447T189 400Q190 389 190 361L189 106Q189 61 185 38L248 41V0H44V30ZM362 612T344 620T302 644Q286 655 276 660T254 666Q234 666 214 656T181 624L151 641Q164 677 195 702T256
727Q278 727 294 719T332 697Q348 685 360 680T385 674Q407 674 426 687T458 722L487 707Q472 661 443 637T385 612Q362 612 344 620Z" />
<glyph unicode="&#xf2;" glyph-name="ograve" horiz-adv-x="585" d="M223 -16T166 16T75 107T41 238Q41 316 74 379T164 479T292 516Q361 516 419 483T510 391T544 262Q544 186 511 122T420 21T292 -16Q223 -16 166 16ZM373 24T407 84T442 233Q442 334 405 406T292
478Q218 478 181 417T143 267Q143 203 160 148T213 58T300 24Q373 24 407 84ZM233 686Q212 708 212 729Q212 745 224 757Q236 765 248 765Q270 765 289 738L373 603L345 580L233 686Z" />
<glyph unicode="&#xf3;" glyph-name="oacute" horiz-adv-x="585" d="M223 -16T166 16T75 107T41 238Q41 316 74 379T164 479T292 516Q361 516 419 483T510 391T544 262Q544 186 511 122T420 21T292 -16Q223 -16 166 16ZM373 24T407 84T442 233Q442 334 405 406T292
478Q218 478 181 417T143 267Q143 203 160 148T213 58T300 24Q373 24 407 84ZM351 686Q372 708 372 729Q372 745 360 757Q348 765 336 765Q314 765 295 738L211 603L239 580L351 686Z" />
<glyph unicode="&#xf4;" glyph-name="ocircumflex" horiz-adv-x="585" d="M223 -16T166 16T75 107T41 238Q41 316 74 379T164 479T292 516Q361 516 419 483T510 391T544 262Q544 186 511 122T420 21T292 -16Q223 -16 166 16ZM373 24T407 84T442 233Q442 334 405
406T292 478Q218 478 181 417T143 267Q143 203 160 148T213 58T300 24Q373 24 407 84ZM293 692H291L162 590L137 619L296 778H298L447 615L420 583L293 692Z" />
<glyph unicode="&#xf5;" glyph-name="otilde" horiz-adv-x="585" d="M223 -16T166 16T75 107T41 238Q41 316 74 379T164 479T292 516Q361 516 419 483T510 391T544 262Q544 186 511 122T420 21T292 -16Q223 -16 166 16ZM373 24T407 84T442 233Q442 334 405 406T292
478Q218 478 181 417T143 267Q143 203 160 148T213 58T300 24Q373 24 407 84ZM335 612T317 620T275 644Q259 655 249 660T227 666Q207 666 187 656T154 624L124 641Q137 677 168 702T229 727Q251 727 267 719T305 697Q321 685 333 680T358 674Q380 674 399 687T431
722L460 707Q445 661 416 637T358 612Q335 612 317 620Z" />
<glyph unicode="&#xf6;" glyph-name="odieresis" horiz-adv-x="585" d="M223 -16T166 16T75 107T41 238Q41 316 74 379T164 479T292 516Q361 516 419 483T510 391T544 262Q544 186 511 122T420 21T292 -16Q223 -16 166 16ZM373 24T407 84T442 233Q442 334 405
406T292 478Q218 478 181 417T143 267Q143 203 160 148T213 58T300 24Q373 24 407 84ZM184 609T170 626T155 668Q155 693 170 710T206 728Q227 728 241 711T255 668Q255 643 240 626T205 609Q184 609 170 626ZM351 609T337 626T322 668Q322 693 337 710T373 728Q394
728 408 711T422 668Q422 643 407 626T372 609Q351 609 337 626Z" />
<glyph unicode="&#xf7;" glyph-name="divide" horiz-adv-x="264" d="M108 44T91 62T74 108Q74 135 91 154T133 173Q158 173 174 154T191 108Q191 81 174 63T132 44Q108 44 91 62ZM108 387T91 405T74 451Q74 478 91 497T133 516Q158 516 174 497T191 451Q191 424
174 406T132 387Q108 387 91 405Z" />
<glyph unicode="&#xf8;" glyph-name="oslash" horiz-adv-x="585" d="M500 418T522 369T544 262Q544 186 511 122T420 21T292 -16Q228 -16 174 12L117 -75L80 -48L134 38Q90 72 66 124T41 238Q41 316 74 379T164 479T292 516Q359 516 415 485L466 565L513 534L460
453Q500 418 522 369ZM143 172T177 107L384 435Q347 478 292 478Q218 478 181 417T143 267Q143 172 177 107ZM373 24T407 84T442 233Q442 322 415 383L207 64Q245 24 300 24Q373 24 407 84Z" />
<glyph unicode="&#xf9;" glyph-name="ugrave" horiz-adv-x="597" d="M170 -16T131 33T91 202V380Q91 422 95 445L26 442V483H57Q96 483 116 490T150 510H179V205Q179 117 203 76T285 35Q322 35 357 57T415 112V369Q415 416 420 445L348 442V483H379Q418 483 438
490T472 510H501L500 132Q500 74 496 38L568 42V0H425Q420 31 418 60Q385 27 341 6T255 -16Q170 -16 131 33ZM227 686Q206 708 206 729Q206 745 218 757Q230 765 242 765Q264 765 283 738L367 603L339 580L227 686Z" />
<glyph unicode="&#xfa;" glyph-name="uacute" horiz-adv-x="597" d="M170 -16T131 33T91 202V380Q91 422 95 445L26 442V483H57Q96 483 116 490T150 510H179V205Q179 117 203 76T285 35Q322 35 357 57T415 112V369Q415 416 420 445L348 442V483H379Q418 483 438
490T472 510H501L500 132Q500 74 496 38L568 42V0H425Q420 31 418 60Q385 27 341 6T255 -16Q170 -16 131 33ZM345 686Q366 708 366 729Q366 745 354 757Q342 765 330 765Q308 765 289 738L205 603L233 580L345 686Z" />
<glyph unicode="&#xfb;" glyph-name="ucircumflex" horiz-adv-x="597" d="M170 -16T131 33T91 202V380Q91 422 95 445L26 442V483H57Q96 483 116 490T150 510H179V205Q179 117 203 76T285 35Q322 35 357 57T415 112V369Q415 416 420 445L348 442V483H379Q418 483
438 490T472 510H501L500 132Q500 74 496 38L568 42V0H425Q420 31 418 60Q385 27 341 6T255 -16Q170 -16 131 33ZM287 692H285L156 590L131 619L290 778H292L441 615L414 583L287 692Z" />
<glyph unicode="&#xfc;" glyph-name="udieresis" horiz-adv-x="597" d="M170 -16T131 33T91 202V380Q91 422 95 445L26 442V483H57Q96 483 116 490T150 510H179V205Q179 117 203 76T285 35Q322 35 357 57T415 112V369Q415 416 420 445L348 442V483H379Q418 483
438 490T472 510H501L500 132Q500 74 496 38L568 42V0H425Q420 31 418 60Q385 27 341 6T255 -16Q170 -16 131 33ZM200 609T186 626T171 668Q171 693 186 710T222 728Q243 728 257 711T271 668Q271 643 256 626T221 609Q200 609 186 626ZM367 609T353 626T338 668Q338
693 353 710T389 728Q410 728 424 711T438 668Q438 643 423 626T388 609Q367 609 353 626Z" />
<glyph unicode="&#xfd;" glyph-name="yacute" horiz-adv-x="528" d="M88 -271T67 -255T46 -210Q46 -191 58 -177T91 -162Q111 -162 120 -176T130 -205Q130 -214 129 -219Q132 -221 140 -221Q153 -221 166 -211T191 -182Q214 -144 261 -11L105 323Q63 413 52 461L4
459V500H211V470H207Q160 467 160 430Q160 405 184 352L301 101Q331 186 387 352Q421 451 436 463L367 459V500H524V470Q490 457 472 429T431 340L306 -9Q270 -110 247 -161T194 -242T121 -271Q88 -271 67 -255ZM346 686Q367 708 367 729Q367 745 355 757Q343 765
331 765Q309 765 290 738L206 603L234 580L346 686Z" />
<glyph unicode="&#xfe;" glyph-name="thorn" horiz-adv-x="577" d="M15 -225Q44 -225 56 -211T71 -175T74 -103L76 625Q76 667 80 690L9 686V728Q68 728 93 735T132 755H161L160 462Q191 487 230 501T311 516Q372 516 423 485T504 397T534 264Q534 181 500 118T407
19T279 -16Q209 -16 160 15V-149Q160 -194 156 -217L219 -214V-255H15V-225ZM347 24T389 86T431 249Q431 339 392 403T277 467Q244 467 214 453T160 416V62Q210 24 277 24Q347 24 389 86Z" />
<glyph unicode="&#xff;" glyph-name="ydieresis" horiz-adv-x="528" d="M88 -271T67 -255T46 -210Q46 -191 58 -177T91 -162Q111 -162 120 -176T130 -205Q130 -214 129 -219Q132 -221 140 -221Q153 -221 166 -211T191 -182Q214 -144 261 -11L105 323Q63 413 52
461L4 459V500H211V470H207Q160 467 160 430Q160 405 184 352L301 101Q331 186 387 352Q421 451 436 463L367 459V500H524V470Q490 457 472 429T431 340L306 -9Q270 -110 247 -161T194 -242T121 -271Q88 -271 67 -255ZM185 609T171 626T156 668Q156 693 171 710T207
728Q228 728 242 711T256 668Q256 643 241 626T206 609Q185 609 171 626ZM352 609T338 626T323 668Q323 693 338 710T374 728Q395 728 409 711T423 668Q423 643 408 626T373 609Q352 609 338 626Z" />
<glyph unicode="&#x2013;" glyph-name="endash" horiz-adv-x="590" d="M66 355H521V289L66 285V355Z" />
<glyph unicode="&#x2014;" glyph-name="emdash" horiz-adv-x="841" d="M66 355H771V289L66 285V355Z" />
<glyph unicode="&#x2018;" glyph-name="quoteleft" horiz-adv-x="224" d="M147 740Q130 718 115 678T100 599Q100 587 101 581Q114 587 126 587Q146 587 159 573T172 538Q172 511 156 496T117 480Q84 480 65 505T46 571Q46 612 67 670T120 760L147 740Z" />
<glyph unicode="&#x2019;" glyph-name="quoteright" horiz-adv-x="174" d="M50 500Q67 522 82 562T97 641Q97 653 96 659Q83 653 71 653Q51 653 38 667T25 702Q25 729 41 744T80 760Q113 760 132 735T151 669Q151 628 130 570T77 480L50 500Z" />
<glyph unicode="&#x201a;" glyph-name="quotesinglbase" horiz-adv-x="253" d="M91 -159Q108 -137 123 -97T138 -18Q138 -6 137 0Q124 -6 112 -6Q92 -6 79 8T66 43Q66 70 82 85T121 101Q154 101 173 76T192 10Q192 -31 171 -89T118 -179L91 -159Z" />
<glyph unicode="&#x201c;" glyph-name="quotedblleft" horiz-adv-x="400" d="M147 740Q130 718 115 678T100 599Q100 587 101 581Q114 587 126 587Q146 587 159 573T172 538Q172 511 156 496T117 480Q84 480 65 505T46 571Q46 612 67 670T120 760L147 740ZM323
740Q306 718 291 678T276 599Q276 587 277 581Q290 587 302 587Q322 587 335 573T348 538Q348 511 332 496T293 480Q260 480 241 505T222 571Q222 612 243 670T296 760L323 740Z" />
<glyph unicode="&#x201d;" glyph-name="quotedblright" horiz-adv-x="349" d="M50 500Q67 522 82 562T97 641Q97 653 96 659Q83 653 71 653Q51 653 38 667T25 702Q25 729 41 744T80 760Q113 760 132 735T151 669Q151 628 130 570T77 480L50 500ZM226 500Q243 522
258 562T273 641Q273 653 272 659Q259 653 247 653Q227 653 214 667T201 702Q201 729 217 744T256 760Q289 760 308 735T327 669Q327 628 306 570T253 480L226 500Z" />
<glyph unicode="&#x201e;" glyph-name="quotedblbase" horiz-adv-x="429" d="M91 -159Q108 -137 123 -97T138 -18Q138 -6 137 0Q124 -6 112 -6Q92 -6 79 8T66 43Q66 70 82 85T121 101Q154 101 173 76T192 10Q192 -31 171 -89T118 -179L91 -159ZM267 -159Q284 -137
299 -97T314 -18Q314 -6 313 0Q300 -6 288 -6Q268 -6 255 8T242 43Q242 70 258 85T297 101Q330 101 349 76T368 10Q368 -31 347 -89T294 -179L267 -159Z" />
<glyph unicode="&#x2022;" glyph-name="bullet" horiz-adv-x="401" d="M159 226T125 245T70 299T50 374Q50 415 70 449T124 502T200 522Q241 522 275 503T330 449T351 374Q351 333 331 299T276 246T200 226Q159 226 125 245Z" />
<glyph unicode="&#x2039;" glyph-name="guilsinglleft" horiz-adv-x="383" d="M336 25L139 278V280L334 517L302 549L31 278V274L305 -7L336 25Z" />
<glyph unicode="&#x203a;" glyph-name="guilsinglright" horiz-adv-x="383" d="M46 25L243 278V280L48 517L80 549L351 278V274L77 -7L46 25Z" />
</font>
</defs>
</svg>
