<?xml version="1.0" standalone="no"?>
<!DOCTYPE svg PUBLIC "-//W3C//DTD SVG 1.1//EN" "http://www.w3.org/Graphics/SVG/1.1/DTD/svg11.dtd">
<svg xmlns="http://www.w3.org/2000/svg">
<defs >
<font id="Lora" horiz-adv-x="585" ><font-face
    font-family="Lora"
    units-per-em="1000"
    panose-1="0 0 5 0 0 0 0 0 0 0"
    ascent="1033"
    descent="-274"
    alphabetic="0" />
<glyph unicode=" " glyph-name="space" horiz-adv-x="263" />
<glyph unicode="!" glyph-name="exclam" horiz-adv-x="272" d="M187 716T200 699T213 657Q213 648 212 643L153 230H116L101 643Q100 672 116 694T161 716Q187 716 200 699ZM153 113T168 96T184 52Q184 24 165 4T121 -16Q98 -16 83 1T67 44Q67 72 86 92T129 113Q153
113 168 96Z" />
<glyph unicode="&quot;" glyph-name="quotedbl" horiz-adv-x="356" d="M141 491H79L84 716H163L141 491ZM304 491H242L248 716H326L304 491Z" />
<glyph unicode="#" glyph-name="numbersign" horiz-adv-x="808" d="M622 529H789V528L774 469H608L556 238H723L707 178H542L502 0H430L472 178H262L222 0H150L192 178H26L42 238H206L260 469H92L108 529H274L315 700H381L342 529H554L595 700H661L622 529ZM328
469L275 238H486L540 469H328Z" />
<glyph unicode="$" glyph-name="dollar" horiz-adv-x="529" d="M313 715Q370 707 421 671L420 716H470L458 498H421Q420 580 387 628T272 677Q231 677 202 660T158 615T143 556Q143 517 164 488T217 437T303 387Q362 355 398 330T460 268T485 180Q485 130 462
87T393 16T281 -16L273 -153H221L227 -16Q193 -14 157 -6T91 19L94 -13H40L51 200H86Q87 110 132 67T260 23Q321 23 360 60T400 155Q400 195 379 224T327 275T242 324Q183 355 148 380T87 442T62 532Q62 568 81 609T144 682T260 716L266 833H320L313 715Z" />
<glyph unicode="%" glyph-name="percent" horiz-adv-x="873" d="M303 716T341 692T397 629T416 544Q416 491 390 443T319 365T222 335Q167 335 129 359T71 423T51 510Q51 561 74 608T143 686T248 716Q303 716 341 692ZM753 674L153 -16L114 22L709 716L753 674ZM206
679T184 656T150 600T138 537Q137 530 137 514Q137 458 158 416T227 373Q281 373 305 422T330 532Q330 591 309 635T241 679Q206 679 184 656ZM717 365T755 340T812 276T831 190Q831 137 805 90T733 13T637 -16Q582 -16 544 8T486 72T466 159Q466 209 489 256T557
334T661 365Q717 365 755 340ZM606 327T581 282T553 185Q549 123 569 72T642 21Q696 21 720 70T745 180Q745 239 724 283T656 327Q606 327 581 282Z" />
<glyph unicode="&amp;" glyph-name="ampersand" horiz-adv-x="683" d="M359 716T398 701T458 660T479 605Q479 585 468 572T436 558Q420 558 408 568T396 594V598Q396 613 404 627Q400 649 374 665T310 681Q247 681 211 638T174 533Q174 483 201 442T298 401Q326
401 338 402L336 358L298 359Q236 359 198 331T145 264T129 195Q129 142 154 105T219 50T299 31Q409 31 463 91T517 243H484Q454 243 432 237T381 208L361 228Q393 276 429 291T532 307Q581 307 610 314T669 349L691 332Q671 301 657 286T621 259T560 245Q561 184
536 125T448 25T286 -16Q174 -16 104 32T34 173Q34 223 55 268T120 345T223 385Q85 414 85 522Q85 581 114 625T193 692T307 716Q359 716 398 701Z" />
<glyph unicode="&apos;" glyph-name="quotesingle" horiz-adv-x="199" d="M146 491H79L84 716H168L146 491Z" />
<glyph unicode="(" glyph-name="parenleft" horiz-adv-x="298" d="M182 -224T136 -150T59 19T29 212Q29 320 68 427T166 621T284 760L307 737Q226 635 180 508T126 239Q125 222 125 188Q125 -58 257 -248L231 -271Q182 -224 136 -150Z" />
<glyph unicode=")" glyph-name="parenright" horiz-adv-x="298" d="M109 713T155 639T232 470T262 277Q262 169 223 62T125 -132T7 -271L-16 -248Q65 -146 111 -19T165 250Q166 267 166 301Q166 547 34 737L60 760Q109 713 155 639Z" />
<glyph unicode="*" glyph-name="asterisk" horiz-adv-x="513" d="M313 716T313 670Q313 660 311 644Q310 636 306 618Q295 546 284 508Q317 526 371 551L408 568Q432 581 457 581Q491 581 491 550Q491 532 474 520T430 503Q325 484 292 480Q321 454 383 386Q394
374 401 359T408 330Q408 312 394 302Q385 296 376 296Q351 296 327 338Q281 432 269 463Q258 441 210 360L197 338Q186 321 172 309T143 297Q134 297 125 303Q114 311 114 325Q114 339 123 355T146 386Q206 448 245 480Q204 488 144 497L110 503Q53 516 53 545Q53
552 56 559Q66 581 92 581Q112 581 138 568Q200 539 256 508Q250 543 243 644Q241 673 249 694T281 716Q313 716 313 670Z" />
<glyph unicode="+" glyph-name="plus" horiz-adv-x="511" d="M289 344L481 343L479 291L286 290L274 82H214L226 290L33 289L36 345L229 344L239 543H299L289 344Z" />
<glyph unicode="," glyph-name="comma" horiz-adv-x="237" d="M128 98T145 76T163 20Q163 -22 142 -79T81 -179L56 -159Q76 -135 94 -92T112 -8V0H110Q99 -4 87 -4Q69 -4 56 10T43 42Q43 68 59 83T99 98Q128 98 145 76Z" />
<glyph unicode="-" glyph-name="hyphen" horiz-adv-x="483" d="M418 291L63 287L66 353H421L418 291Z" />
<glyph unicode="." glyph-name="period" horiz-adv-x="232" d="M128 110T142 93T157 51Q157 23 139 4T97 -16Q74 -16 59 1T43 45Q43 72 62 91T105 110Q128 110 142 93Z" />
<glyph unicode="/" glyph-name="slash" horiz-adv-x="654" d="M662 723L29 -271L-18 -238L607 760L662 723Z" />
<glyph unicode="0" glyph-name="zero" horiz-adv-x="597" d="M441 716T496 619T551 384Q551 361 550 350Q545 259 516 176T430 38T287 -16Q161 -16 108 77T54 309Q54 336 55 350Q59 441 88 524T176 662T320 716Q441 716 496 619ZM243 678T201 587T151 368Q150
352 150 317Q150 195 182 109T291 23Q369 23 407 112T453 331Q455 371 455 390Q455 515 425 596T322 678Q243 678 201 587Z" />
<glyph unicode="1" glyph-name="one" horiz-adv-x="354" d="M229 109Q227 59 223 40L307 44L305 0H57L58 33Q107 35 128 63T151 147L173 619H171L49 542L31 572L226 716H260L229 109Z" />
<glyph unicode="2" glyph-name="two" horiz-adv-x="525" d="M366 716T422 673T474 535Q467 420 268 266Q193 209 150 163T97 74L271 69Q293 68 332 68Q387 68 413 82T442 138H473L459 0H27Q30 59 53 105T111 187T205 275L240 305Q300 360 337 417T377 522Q380
591 353 634T259 677Q219 677 186 657T139 606Q154 590 154 563Q154 544 141 530T107 516Q87 516 74 530T60 566Q60 600 86 635T162 693T277 716Q366 716 422 673Z" />
<glyph unicode="3" glyph-name="three" horiz-adv-x="545" d="M370 716T425 674T476 543Q474 490 431 443T306 376Q396 368 445 321T494 205Q494 137 458 87T362 10T236 -16Q170 -16 124 4T54 56T31 121Q31 146 44 161T80 177Q100 177 112 164T125 132Q125 107
111 92Q119 60 153 44T230 27Q307 27 351 73T395 200Q395 259 365 304T258 349Q234 349 192 347L194 392H235Q284 392 316 414T364 469T382 532Q385 600 359 638T266 677Q237 677 210 666T166 637T144 602Q156 586 156 563Q156 545 144 533T113 520Q94 520 82 532T69
566Q69 598 94 633T168 692T282 716Q370 716 425 674Z" />
<glyph unicode="4" glyph-name="four" horiz-adv-x="527" d="M393 250L493 249L490 193H391L387 109Q385 58 378 38L457 41L454 0H211L213 33H221Q269 37 287 67T307 159L309 193H3L5 242L379 716H413L393 250ZM327 577L68 255L312 251L329 577H327Z" />
<glyph unicode="5" glyph-name="five" horiz-adv-x="523" d="M469 636L140 629L127 408Q189 434 264 434Q373 434 424 373T476 223Q476 147 442 93T349 12T222 -16Q163 -16 121 3T58 54T36 119Q36 145 50 161T85 177Q105 177 117 164T130 133Q130 109 116 92Q117
59 149 41T222 23Q294 23 334 72T377 191L378 216Q378 288 347 338T230 389Q202 389 170 381T110 355L83 380L99 700H353Q408 700 432 715T458 765H484L469 636Z" />
<glyph unicode="6" glyph-name="six" horiz-adv-x="554" d="M392 716T429 698T484 651T503 596Q503 573 490 559T457 544Q437 544 425 556T413 587Q413 596 416 606T426 625Q421 645 397 662T335 678Q236 676 195 574T144 354Q173 391 215 414T310 437Q385 437
429 404T490 320T504 213Q501 151 470 99T384 15T265 -16Q154 -16 104 57T53 269Q53 288 55 330Q64 471 126 593T340 716Q392 716 429 698ZM246 393T201 360T139 281Q137 170 166 97T266 23Q333 23 370 71T410 191L411 217Q411 289 385 341T292 393Q246 393 201
360Z" />
<glyph unicode="7" glyph-name="seven" horiz-adv-x="452" d="M455 634Q388 511 348 402T252 109L233 46Q224 17 212 1T179 -16Q142 -16 142 26Q142 49 158 89T207 202L221 232L251 299Q347 512 409 633L145 632Q102 631 80 615T56 558H32L39 700H458L455 634Z" />
<glyph unicode="8" glyph-name="eight" horiz-adv-x="564" d="M354 716T397 699T467 647T494 565Q494 509 453 459T351 378Q421 336 463 282T502 167Q498 77 432 31T271 -16Q179 -16 118 22T57 142Q57 206 101 262T216 361Q150 401 117 445T86 534Q89 594 121
635T202 696T304 716Q354 716 397 699ZM265 677T236 659T190 612T174 549Q174 504 209 465T315 397Q361 427 388 468T418 546Q422 608 391 642T304 677Q265 677 236 659ZM192 303T166 251T140 154Q140 91 175 58T275 24Q334 24 372 62T410 159Q410 213 373 256T270
332Q256 338 250 342Q192 303 166 251Z" />
<glyph unicode="9" glyph-name="nine" horiz-adv-x="552" d="M404 716T454 633T504 405Q504 376 503 362Q497 211 440 98T233 -16Q177 -16 139 2T81 50T62 111Q62 135 75 150T110 166Q129 166 141 153T153 123Q153 113 149 101T136 83Q155 22 232 22Q330 22 370
123T416 348Q387 311 344 288T247 264Q144 264 101 323T58 470Q58 537 85 593T163 682T286 716Q404 716 454 633ZM222 678T187 630T149 510Q145 433 170 371T270 309Q315 309 357 340T417 416Q416 533 387 605T283 678Q222 678 187 630Z" />
<glyph unicode=":" glyph-name="colon" horiz-adv-x="253" d="M144 110T158 93T173 51Q173 23 155 4T113 -16Q90 -16 75 1T59 45Q59 72 78 91T121 110Q144 110 158 93ZM159 516T173 499T188 457Q188 429 170 410T128 390Q105 390 90 407T74 451Q74 478 93 497T136
516Q159 516 173 499Z" />
<glyph unicode=";" glyph-name="semicolon" horiz-adv-x="271" d="M153 98T170 76T188 20Q188 -22 167 -79T106 -179L81 -159Q101 -135 119 -92T137 -8V0H135Q124 -4 112 -4Q94 -4 81 10T68 42Q68 68 84 83T124 98Q153 98 170 76ZM166 516T180 499T195 457Q195
429 177 410T135 390Q112 390 97 407T81 451Q81 478 100 497T143 516Q166 516 180 499Z" />
<glyph unicode="&lt;" glyph-name="less" horiz-adv-x="539" d="M487 484L100 317V316L470 149L466 87L32 281L35 346L491 544L487 484Z" />
<glyph unicode="=" glyph-name="equal" horiz-adv-x="587" d="M523 435L520 381L75 379L78 437L523 435ZM513 243L510 189L65 187L68 245L513 243Z" />
<glyph unicode="&gt;" glyph-name="greater" horiz-adv-x="539" d="M53 147L440 314V315L70 482L74 544L508 350L505 285L49 87L53 147Z" />
<glyph unicode="?" glyph-name="question" horiz-adv-x="473" d="M357 716T402 673T448 565Q448 549 447 542Q441 489 403 448T299 357Q254 323 234 304T214 265Q214 252 223 243T253 234Q274 234 292 241L302 206Q272 188 222 188Q197 188 171 205T146 255Q148
281 168 303T230 361Q288 407 320 447T357 544Q358 550 358 563Q358 615 331 646T243 677Q215 677 190 667T149 640T128 607Q143 595 143 568Q143 549 131 536T98 523Q78 523 65 536T51 572Q51 603 78 637T152 693T260 716Q357 716 402 673ZM243 102T257 86T272
47Q272 21 256 3T215 -16Q193 -16 178 0T164 43Q165 67 183 84T222 102Q243 102 257 86Z" />
<glyph unicode="@" glyph-name="at" horiz-adv-x="792" d="M540 637T612 591T719 472T750 318Q745 229 712 172T633 90T546 64Q539 64 527 66Q489 73 473 95T457 152Q457 181 471 243H469Q431 141 391 106T309 70Q263 70 236 104T213 209Q217 284 246 346T330
445T458 482Q514 482 563 469L557 436Q554 421 540 343T519 214Q516 195 516 176Q516 145 525 125T552 100Q556 99 564 99Q591 99 616 121T659 183T681 277Q683 307 683 319Q683 459 614 528T430 597Q410 597 400 596Q316 589 251 538T151 408T115 240Q115 141
155 75T262 -22T406 -54Q467 -54 527 -33T635 41L658 16Q606 -40 536 -67T382 -95Q272 -95 195 -51T80 67T42 234L43 257Q47 349 93 436T226 580T435 637Q540 637 612 591ZM385 452T350 413T297 315T279 199Q279 156 291 132T327 108Q361 108 398 161T462 294T493
443Q472 452 433 452Q385 452 350 413Z" />
<glyph unicode="A" glyph-name="A" horiz-adv-x="631" d="M532 150Q541 124 548 92T553 40L618 44L616 0H399L400 33Q460 34 460 83Q460 100 452 128L423 222L167 216L127 109Q112 70 96 40L171 44L169 0H-14L-13 33Q22 34 44 64T93 158L319 719H341L532 150ZM305
580L263 468Q251 439 202 308L183 259H412Q355 438 307 580H305Z" />
<glyph unicode="B" glyph-name="B" horiz-adv-x="619" d="M419 702T479 660T533 531Q530 478 486 434T363 376V374Q465 374 518 329T572 208Q572 144 541 97T454 25T329 0H40L42 33Q77 34 92 49T111 85T118 161L140 581Q141 628 147 660L74 656L77 700Q148 700
183 701L300 702Q419 702 479 660ZM271 666T255 657T232 628T223 569L213 383Q242 383 286 385Q368 388 406 433T445 544Q445 612 404 639T303 666Q271 666 255 657ZM259 347T211 344L199 119Q196 63 192 41Q211 39 264 39H298Q381 39 429 81T478 202Q478 278 433
312T314 347Q259 347 211 344Z" />
<glyph unicode="C" glyph-name="C" horiz-adv-x="686" d="M521 716T609 656H610L608 710H662L650 479H614Q609 572 557 623T416 675Q342 675 280 632T180 511T143 331Q143 245 176 178T266 73T395 36Q462 36 525 65T631 148L656 127Q593 48 517 16T366 -16Q272
-16 200 27T89 147T49 317Q49 419 90 510T214 659T412 716Q521 716 609 656Z" />
<glyph unicode="D" glyph-name="D" horiz-adv-x="738" d="M489 702T592 620T695 376Q695 275 650 190T516 52T299 0H40L42 33Q77 34 92 49T111 85T117 156L141 588Q145 638 148 660L74 656L77 700L309 701Q489 702 592 620ZM266 664T250 653T228 620T221 551L198
118Q195 62 191 40Q235 38 298 38Q387 38 456 83T563 206T602 380Q602 513 527 588T303 664Q266 664 250 653Z" />
<glyph unicode="E" glyph-name="E" horiz-adv-x="619" d="M551 525H518Q522 607 488 637T390 665L304 663Q268 662 252 650T230 616T222 544L213 384L285 383Q332 382 357 388T395 414T410 477H443L432 259H399Q400 297 393 316T367 341T316 348L284 347L211 344L199
115Q196 59 192 37L383 40Q453 41 492 75T535 195H569L553 0H41L43 33Q78 34 93 49T112 85T118 156L142 588Q143 622 149 660L76 656L78 700H555L551 525Z" />
<glyph unicode="F" glyph-name="F" horiz-adv-x="541" d="M534 525H501Q505 607 470 637T370 665L297 663Q264 662 249 650T229 616T222 552L212 368H290Q329 369 350 375T382 402T395 462H428L417 243H384Q386 283 377 301T348 325T288 331Q249 331 210 328L199
119Q198 72 192 40L294 44L292 0H41L43 33Q78 34 93 49T112 85T118 156L142 588Q143 622 149 660L76 656L78 700H538L534 525Z" />
<glyph unicode="G" glyph-name="G" horiz-adv-x="753" d="M467 716T521 702T617 662L615 709H670L658 480H622Q621 572 564 624T417 676Q343 676 281 632T181 509T143 333Q143 246 174 178T263 71T395 32Q438 32 484 44T569 82L580 300L510 296L512 340H735L733
307Q699 307 682 285T661 241T655 188L647 36H623Q581 36 514 10Q483 -2 442 -9T366 -16Q270 -16 199 22T88 134T49 307Q49 409 90 503T214 656T413 716Q467 716 521 702Z" />
<glyph unicode="H" glyph-name="H" horiz-adv-x="773" d="M738 667Q707 666 692 654T671 620T663 557L640 119Q637 62 633 40L705 44L703 0H482L484 33Q519 34 534 49T553 85T559 156L569 338L210 334L199 119Q196 62 192 40L264 44L262 0H41L43 33Q78 34 93 49T112
84T118 156L141 588Q145 638 148 660L76 656L78 700H299L297 667Q266 666 251 654T230 619T222 556L212 378H571L582 588Q583 622 589 660L517 656L519 700H740L738 667Z" />
<glyph unicode="I" glyph-name="I" horiz-adv-x="333" d="M297 667Q263 666 248 653T228 619T222 554L199 119Q198 72 192 40L264 44L262 0H41L43 33Q78 34 93 49T112 85T118 156L141 588Q142 622 148 660L76 656L78 700H299L297 667Z" />
<glyph unicode="J" glyph-name="J" horiz-adv-x="367" d="M358 667Q312 667 296 642T276 568L260 244Q255 149 237 93T182 10T87 -16Q46 -16 16 1T-14 55Q-14 77 -1 92T34 107Q55 107 66 93T77 63Q77 48 73 40Q77 32 87 28T106 24Q131 25 150 50T173 153L199 660L97
656L99 700H361L358 667Z" />
<glyph unicode="K" glyph-name="K" horiz-adv-x="667" d="M653 667Q607 663 575 652T512 613T444 532L338 376Q360 362 375 346T401 313T416 291L521 142Q555 93 578 70T619 40T662 33L660 0H542Q517 0 446 98L335 260Q294 321 264 341L211 340L199 119Q196 62
192 40L264 44L262 0H41L43 33Q78 34 93 49T112 85T118 156L141 588Q145 638 148 660L76 656L78 700H299L297 667Q266 666 251 653T230 618T222 554L213 380H291L424 577Q461 633 501 660V661L438 659L440 700H655L653 667Z" />
<glyph unicode="L" glyph-name="L" horiz-adv-x="577" d="M296 667Q263 666 248 651T228 613T221 544L198 115Q195 59 191 37L378 40Q443 42 477 81T515 207H549L532 0H40L42 33Q77 34 92 49T111 84T117 156L141 588Q142 596 143 620T148 660L77 656V700H298L296 667Z" />
<glyph unicode="M" glyph-name="M" horiz-adv-x="917" d="M868 667Q829 668 811 643T794 558L797 103Q797 76 795 40L869 44L866 0H646L648 33H656Q694 36 706 63T718 152V494Q718 551 719 580H717L682 503L444 -10H415Q376 90 304 290Q284 348 242 462L235 481Q216
534 198 593H196Q192 505 183 395L157 125Q151 65 147 40L223 44L220 0H30L32 33Q61 33 76 45T96 75T105 125L159 660L87 657L89 700H238Q264 634 352 396Q429 189 455 122H457Q476 162 505 229L515 251Q541 310 621 476Q675 588 726 700H870L868 667Z" />
<glyph unicode="N" glyph-name="N" horiz-adv-x="762" d="M741 667Q709 666 694 654T675 622T669 564L668 544L640 -11H592L183 573H181L165 139Q164 129 164 110Q162 62 158 40L230 44L228 0H45L46 33Q113 33 116 112L143 660L76 656L78 700H197L599 128H601L622
588Q625 637 629 660L557 656L559 700H743L741 667Z" />
<glyph unicode="O" glyph-name="O" horiz-adv-x="788" d="M524 716T599 666T710 536T746 369Q746 279 705 190T581 43T382 -16Q271 -16 196 34T85 162T49 327Q49 431 94 520T222 662T413 716Q524 716 599 666ZM328 676T268 627T177 501T145 343Q145 268 170 195T250
74T387 25Q469 25 528 73T619 197T650 353Q650 434 622 508T539 629T408 676Q328 676 268 627Z" />
<glyph unicode="P" glyph-name="P" horiz-adv-x="597" d="M441 702T513 653T585 506Q584 446 554 392T449 300T246 263Q220 263 207 264L199 119Q196 62 192 40L284 45L282 0H41L43 33Q78 34 93 49T112 85T118 156L141 588Q145 638 148 660L75 656L78 700Q218
702 297 702Q441 702 513 653ZM263 663T248 650T229 614T222 549L209 306Q234 303 274 303Q334 303 383 327T462 396T491 502Q491 585 439 624T293 663Q263 663 248 650Z" />
<glyph unicode="Q" glyph-name="Q" horiz-adv-x="788" d="M524 716T599 666T710 536T746 369Q746 291 714 212T617 72T463 -7V-8Q511 -8 543 -19T620 -71L637 -87Q706 -150 729 -167T774 -185H780V-218H748Q705 -218 683 -216T638 -201T585 -162Q566 -145 516
-95Q472 -50 447 -33T382 -16Q271 -16 196 34T85 162T49 327Q49 431 94 520T222 662T413 716Q524 716 599 666ZM328 676T268 627T177 501T145 343Q145 268 170 195T250 74T387 25Q469 25 528 73T619 197T650 353Q650 434 622 508T539 629T408 676Q328 676 268 627Z"
/>
<glyph unicode="R" glyph-name="R" horiz-adv-x="625" d="M437 700T499 655T561 531Q561 459 519 402T367 322V321Q384 308 399 288T433 235L495 128Q515 93 528 75T562 45T612 33L610 0H488Q467 17 448 44T405 111L344 218Q341 224 330 245T306 283T282 313Q271
312 248 312L209 313L199 119Q196 62 192 40L264 44L262 0H41L43 33Q78 34 93 49T112 85T118 156L141 588Q142 622 148 660L75 656L78 700Q200 702 259 702H303Q437 700 499 655ZM264 664T249 651T229 616T222 549L211 352Q241 350 255 350Q468 350 468 524Q468
594 426 629T297 664Q264 664 249 651Z" />
<glyph unicode="S" glyph-name="S" horiz-adv-x="566" d="M328 716T373 705T455 665L453 708H504L493 488H457Q456 567 413 621T288 676Q226 676 189 640T152 551Q152 513 174 486T228 439T316 394Q380 365 420 341T487 278T515 185Q515 126 486 81T402 10T271
-16Q225 -16 178 -6T96 27L99 -8H47L52 205H91Q92 116 143 71T278 26Q342 26 386 61T431 158Q431 200 408 230T352 280T261 328Q199 357 162 380T98 439T72 527Q72 567 91 610T157 685T284 716Q328 716 373 705Z" />
<glyph unicode="T" glyph-name="T" horiz-adv-x="636" d="M627 489H589Q591 552 582 589T546 645T468 664L383 663L350 119Q347 62 343 40L426 44L424 0H193L195 33Q226 34 241 50T261 90T269 156L300 663L197 662Q135 662 107 621T73 489H36L53 700H632L627 489Z" />
<glyph unicode="U" glyph-name="U" horiz-adv-x="744" d="M742 667Q706 666 691 651T672 616T666 544L652 311Q644 166 575 75T366 -16Q268 -16 211 15T129 110T103 280Q103 298 105 340L118 579Q121 625 126 660L54 657L56 700H278L276 667Q232 667 218 644T202
588L189 335Q188 319 188 286Q188 173 229 107T381 41Q484 41 538 111T601 306L619 588Q623 638 626 660L554 656L556 700H743L742 667Z" />
<glyph unicode="V" glyph-name="V" horiz-adv-x="665" d="M694 667Q650 665 626 644T579 569Q523 431 337 -11H311L115 522Q82 607 79 658L23 656L25 700H253L251 666Q183 662 183 610Q183 589 194 558L225 470Q264 357 276 325Q324 200 347 132H349Q371 188 386
223L407 275L501 505L535 586Q559 643 568 660L491 656L493 700H696L694 667Z" />
<glyph unicode="W" glyph-name="W" horiz-adv-x="994" d="M550 667T571 591T604 474Q643 337 646 325L652 304Q684 190 696 143H698L749 274Q796 404 853 549L867 586Q882 629 901 659L821 656L823 700H1026L1024 667Q988 663 969 652T934 613T893 519Q860 436
824 340Q730 97 685 -11H659L545 383Q523 458 505 531H501L296 -11H270L119 522L112 547Q101 583 94 611T84 658L28 656L30 700H270L268 667Q225 665 208 653T190 611Q190 587 197 558Q206 515 218 472T235 416Q252 362 261 325Q273 279 295 203L310 152H312Q333
210 350 255L363 289Q371 309 385 349Q500 656 515 702H542Q550 667 571 591Z" />
<glyph unicode="X" glyph-name="X" horiz-adv-x="652" d="M645 667Q603 661 566 626T481 528L359 368Q464 214 523 135L538 113Q565 77 587 42L645 44L643 0H397L399 33Q458 32 458 67Q458 83 444 106Q408 161 372 211L310 301L202 153Q197 147 194 142T188 133Q183
126 161 96T115 39L198 44L196 0H0L2 33Q32 39 55 54T96 90T145 153L284 338Q198 464 162 519T111 601T86 658L30 656L32 700H292L290 667L246 665Q198 662 198 637Q198 626 203 615T219 584Q245 536 334 405L438 544Q465 580 491 614T532 660L448 656L450 700H647L645
667Z" />
<glyph unicode="Y" glyph-name="Y" horiz-adv-x="641" d="M667 667Q620 664 587 635T513 538L431 398Q412 364 374 300L369 216Q363 120 364 119Q363 72 357 40L440 44L438 0H207L209 33Q244 34 259 49T278 85T283 156L289 270L131 545Q88 616 83 658L21 656L23
700H277L275 667Q195 667 195 620Q195 597 216 558L247 504Q302 407 346 341H348Q397 427 465 541Q481 569 490 583Q522 638 542 659L463 656L465 700H669L667 667Z" />
<glyph unicode="Z" glyph-name="Z" horiz-adv-x="612" d="M577 665L185 120Q145 65 113 37L360 41Q430 42 475 83T524 205H558L541 0H28L31 46Q48 67 68 95Q159 213 237 319T416 573Q432 596 449 620T485 663L227 659Q167 657 136 617T100 493H66L83 700H579L577 665Z" />
<glyph unicode="[" glyph-name="bracketleft" horiz-adv-x="361" d="M378 699L183 696L117 -196L318 -199L313 -255H46L117 755H382L378 699Z" />
<glyph unicode="\" glyph-name="backslash" horiz-adv-x="785" d="M48 723L681 -271L728 -238L103 760L48 723Z" />
<glyph unicode="]" glyph-name="bracketright" horiz-adv-x="361" d="M-24 -199L171 -196L237 696L36 699L41 755H308L237 -255H-28L-24 -199Z" />
<glyph unicode="^" glyph-name="asciicircum" horiz-adv-x="823" d="M753 431H667L415 676H414L134 435H54L377 710H462L753 431Z" />
<glyph unicode="_" glyph-name="underscore" horiz-adv-x="710" d="M642 -54L639 -106H24L27 -50L642 -54Z" />
<glyph unicode="`" glyph-name="grave" horiz-adv-x="240" d="M68 686Q45 710 45 731Q45 745 55 755Q63 763 75 763Q98 763 117 731L195 599L171 579L68 686Z" />
<glyph unicode="a" glyph-name="a" horiz-adv-x="548" d="M397 511T463 494Q419 168 419 94Q419 68 424 54T447 39Q466 39 486 63T520 136L548 130Q543 102 527 69T483 13T418 -11Q344 -11 344 79Q344 123 362 213H359Q317 81 267 35T164 -11Q106 -11 72 31T37
163Q37 259 70 338T169 464T329 511Q397 511 463 494ZM240 475T200 434T141 325T121 180Q121 33 186 33Q230 33 274 102T347 272T376 463Q346 475 298 475Q240 475 200 434Z" />
<glyph unicode="b" glyph-name="b" horiz-adv-x="511" d="M185 690T173 586L167 523Q161 473 144 298H147Q182 427 231 469T340 511Q405 511 435 459T465 327Q465 178 397 84T188 -11Q158 -11 122 -6T57 10L72 243Q91 524 101 639Q104 675 107 692L35 688L39 728Q99
728 125 735T166 755H195Q185 690 173 586ZM268 464T227 397T159 232T131 47Q142 36 163 30T205 24Q301 25 340 109T379 308Q379 464 313 464Q268 464 227 397Z" />
<glyph unicode="c" glyph-name="c" horiz-adv-x="473" d="M320 511T354 496T408 454T428 394Q428 371 416 358T384 345Q364 345 354 358T343 385Q343 409 356 423Q351 450 330 463T277 476Q198 476 163 402T127 231Q127 131 159 85T249 38Q293 38 334 67T402 164L437
147Q401 64 348 27T232 -11Q141 -11 90 43T39 208Q39 278 65 348T146 464T278 511Q320 511 354 496Z" />
<glyph unicode="d" glyph-name="d" horiz-adv-x="555" d="M482 655T474 583L456 427Q441 294 434 217T427 92Q427 66 432 53T454 39Q473 39 492 63T526 136L555 130Q550 102 534 69T490 13T425 -11Q386 -11 367 13T348 79Q348 133 363 208H360Q323 83 275 36T173
-11Q107 -11 73 42T38 179Q38 278 71 353T169 469T329 511Q361 511 385 507L400 631Q405 668 411 692L338 688L342 728Q402 728 428 735T469 755H498Q482 655 474 583ZM246 475T204 433T143 328T124 196Q124 122 140 79T194 36Q224 36 256 71T314 165T355 289Q367
344 380 465Q353 475 312 475Q246 475 204 433Z" />
<glyph unicode="e" glyph-name="e" horiz-adv-x="477" d="M342 511T382 483T422 396Q422 322 333 281T127 227Q127 133 155 86T241 39Q287 39 330 69T405 160L438 141Q396 62 344 26T224 -11Q132 -11 86 46T39 205Q39 286 66 355T149 468T282 511Q342 511 382
483ZM204 477T169 415T128 263Q215 275 277 311T339 401Q339 434 321 455T268 477Q204 477 169 415Z" />
<glyph unicode="f" glyph-name="f" horiz-adv-x="325" d="M355 760T374 747T393 708Q393 694 384 681T355 668Q335 668 324 682T313 718Q307 722 290 722Q243 722 223 666T193 500H335L332 461L190 459L187 403Q180 286 176 236L170 165Q158 18 142 -67T82 -212T-47
-271Q-85 -271 -105 -258T-125 -219Q-125 -205 -115 -192T-86 -178Q-67 -178 -56 -190T-45 -224Q-34 -232 -16 -232Q20 -232 39 -193T66 -90T83 97Q89 197 94 245L100 317Q105 392 112 458L24 457L29 500H117Q135 624 180 692T320 760Q355 760 374 747Z" />
<glyph unicode="g" glyph-name="g" horiz-adv-x="518" d="M365 511T399 507T457 494Q452 412 431 166L418 14Q406 -128 340 -199T162 -271Q133 -271 99 -263T40 -236T14 -187Q14 -166 27 -151T61 -136Q80 -136 93 -148T106 -182Q106 -195 100 -208Q109 -222 129
-229T169 -236Q240 -236 277 -188T328 -71T350 105Q356 179 361 213H358Q320 82 274 36T173 -11Q106 -11 72 42T38 183Q38 272 70 346T168 466T330 511Q365 511 399 507ZM246 475T203 432T141 327T122 200Q122 125 139 81T194 36Q238 36 279 104T348 273T380 462Q354
475 314 475Q246 475 203 432Z" />
<glyph unicode="h" glyph-name="h" horiz-adv-x="572" d="M201 705Q185 609 182 585Q175 534 166 438T152 288H155Q202 415 249 463T352 511Q408 511 435 475T462 381Q462 314 445 189Q434 110 434 85Q434 63 439 51T461 39Q480 39 500 62T534 136L559 129Q550
81 518 35T432 -11Q387 -11 369 12T351 85Q351 123 364 218Q366 231 373 292T380 403Q380 426 369 445T332 464Q289 464 244 400T170 240T141 53Q141 34 143 0H61Q60 9 60 26Q60 100 77 314T110 639Q112 651 119 692L49 688L53 728Q113 728 139 735T180 755H209L201
705Z" />
<glyph unicode="i" glyph-name="i" horiz-adv-x="324" d="M213 727T228 711T243 670Q243 645 227 630T189 614Q167 614 152 629T136 670Q136 695 152 711T190 727Q213 727 228 711ZM174 511T195 483T217 407Q217 368 200 270Q190 207 185 165T179 81Q179 39 210
39Q229 39 249 63T283 136L311 130Q299 76 268 33T187 -11Q97 -11 97 83Q97 122 102 159T117 251Q127 312 131 345T136 416Q136 433 130 447T108 461Q89 461 69 437T35 364L7 370Q16 419 48 465T133 511Q174 511 195 483Z" />
<glyph unicode="j" glyph-name="j" horiz-adv-x="297" d="M210 728T225 712T241 671Q241 646 225 631T187 615Q165 615 150 630T134 670Q134 695 149 711T187 728Q210 728 225 712ZM184 511T205 485T227 409Q227 295 217 192Q203 52 183 -41T113 -203T-28 -271Q-58
-271 -81 -258T-104 -217Q-104 -198 -93 -184T-61 -170Q-40 -170 -28 -184T-19 -225Q-11 -230 1 -230Q52 -230 82 -141T122 30T139 200Q146 295 146 365Q146 401 145 417Q144 434 137 446T115 459Q98 459 79 435T47 360L19 366Q23 395 37 428T79 486T144 511Q184
511 205 485Z" />
<glyph unicode="k" glyph-name="k" horiz-adv-x="520" d="M199 715T185 611L182 585Q164 446 153 288H156Q198 413 246 462T352 511Q400 511 424 480T449 403Q449 366 428 329T362 262T256 221V220Q290 219 308 204T344 150Q369 94 383 70T418 45Q434 45 445 59T464
107L492 102Q482 54 455 22T384 -11Q347 -11 322 19T269 120Q249 174 234 194T191 215L165 214Q141 126 141 53Q141 34 143 0H61Q60 9 60 26Q60 102 76 315T110 639Q112 651 119 692L49 688L53 728Q112 728 137 735T178 755H207Q199 715 185 611ZM285 464T243 400T173
243H174Q268 243 318 283T368 401Q368 426 359 445T325 464Q285 464 243 400Z" />
<glyph unicode="l" glyph-name="l" horiz-adv-x="283" d="M203 684Q191 614 188 585Q172 468 158 314T143 91Q143 66 148 53T170 39Q189 39 209 62T243 136L271 129Q266 101 250 69T207 13T142 -11Q100 -11 81 11T62 78Q62 144 79 321T116 638L125 692L54 688L59
728Q118 728 144 735T186 755H214L203 684Z" />
<glyph unicode="m" glyph-name="m" horiz-adv-x="876" d="M719 511T743 475T768 381Q768 339 763 297T748 189Q735 109 735 85Q735 63 740 51T762 39Q781 39 801 62T836 136L864 129Q859 101 843 69T798 13T733 -11Q688 -11 671 12T653 85Q653 126 669 217Q670
226 676 266T685 341T689 403Q689 426 678 445T641 464Q596 464 554 398T485 235T458 53Q458 34 460 0H376Q375 9 375 26Q375 59 381 114T394 223Q411 353 411 400Q411 464 363 464Q319 464 277 398T207 235T180 53Q180 34 182 0H98Q97 9 97 26Q97 51 101 98T116
226L128 330Q132 365 134 383T136 416Q136 437 131 449T109 461Q90 461 70 437T36 364L8 370Q13 398 29 431T73 487T138 511Q213 511 213 411Q213 383 208 349T197 288H200Q243 413 289 462T383 511Q438 511 464 476T490 397Q490 371 487 354T473 291H476Q521 416
568 463T663 511Q719 511 743 475Z" />
<glyph unicode="n" glyph-name="n" horiz-adv-x="615" d="M452 511T478 475T505 381Q505 314 486 189Q475 110 475 85Q475 63 480 51T502 39Q521 39 541 62T575 136L603 129Q598 101 582 69T538 13T473 -11Q428 -11 410 12T392 85Q392 122 405 217Q423 339 423
403Q423 426 413 445T376 464Q332 464 286 398T210 234T179 53Q179 34 181 0H97Q96 9 96 26Q96 50 100 93T114 206Q114 212 116 226Q117 239 119 253T122 281Q129 342 132 370T135 416Q135 437 130 449T108 461Q89 461 69 437T35 364L7 370Q12 398 28 431T72 487T137
511Q212 511 212 408Q212 379 207 345T196 283H199Q247 411 294 461T396 511Q452 511 478 475Z" />
<glyph unicode="o" glyph-name="o" horiz-adv-x="521" d="M340 511T383 485T451 410T476 292Q476 210 447 141T362 31T231 -11Q136 -11 88 51T39 213Q39 295 69 363T155 471T286 511Q340 511 383 485ZM226 474T194 443T144 357T127 235Q127 152 154 90T242 27Q293
27 325 66T373 162T388 273Q388 357 362 415T270 474Q226 474 194 443Z" />
<glyph unicode="p" glyph-name="p" horiz-adv-x="571" d="M457 511T491 456T526 317Q526 219 492 145T392 30T231 -11Q207 -11 184 -8L176 -134Q175 -141 175 -156Q173 -195 168 -217L231 -214V-255H42V-225Q66 -225 78 -210T94 -172T102 -105Q102 -92 103 -85Q112
21 130 218Q146 383 146 408Q146 434 141 447T119 461Q100 461 81 437T47 364L18 370Q23 398 39 431T83 487T148 511Q224 511 224 406Q224 362 210 292H213Q251 418 295 464T391 511Q457 511 491 456ZM335 464T300 416T238 290T198 130Q192 95 187 35Q223 23 248
23Q314 23 357 64T420 169T440 299Q440 376 424 420T370 464Q335 464 300 416Z" />
<glyph unicode="q" glyph-name="q" horiz-adv-x="518" d="M358 511T399 508T461 501Q452 385 436 226Q409 -58 404 -134Q399 -196 394 -217L457 -214V-255H268V-225Q292 -225 304 -210T320 -172T328 -105Q328 -92 329 -85Q341 62 360 208H357Q320 81 274 35T172
-11Q106 -11 72 41T38 177Q38 275 71 350T171 467T331 511Q358 511 399 508ZM249 476T206 434T144 327T124 197Q124 121 140 79T196 36Q241 36 283 105T353 275T386 468Q356 477 315 477Q249 476 206 434Z" />
<glyph unicode="r" glyph-name="r" horiz-adv-x="455" d="M418 511T437 496T457 453Q457 434 444 420T411 405Q393 405 380 416T365 447Q361 448 354 448Q312 448 272 381T207 218T182 43Q182 34 184 0H101Q100 9 100 26Q100 87 116 231L129 347Q135 399 135 416Q135
437 130 449T108 461Q89 461 69 437T35 364L7 370Q12 398 28 431T72 487T137 511Q176 511 193 486T210 414Q210 368 195 293H198Q239 414 286 462T387 511Q418 511 437 496Z" />
<glyph unicode="s" glyph-name="s" horiz-adv-x="428" d="M286 511T330 484T375 413Q375 392 363 380T333 367Q316 367 305 379T293 407Q293 424 302 438Q296 456 276 467T224 478Q189 478 161 456T132 399Q132 370 158 347T238 293Q283 267 311 247T358 198T378
135Q378 93 355 60T288 8T190 -11Q125 -11 78 18T30 96Q30 117 42 131T73 145Q92 145 103 133T114 103Q114 86 105 72Q112 51 136 39T188 26Q241 26 268 50T296 121Q296 154 268 179T183 237Q119 274 87 304T54 376Q54 412 76 443T137 492T227 511Q286 511 330
484Z" />
<glyph unicode="t" glyph-name="t" horiz-adv-x="364" d="M199 500H358L355 462L195 460L188 396Q166 206 166 127Q166 88 175 64T213 40Q265 40 307 110L333 93Q302 40 269 15T189 -11Q134 -11 110 22T85 107Q85 165 92 259T111 459L22 458L25 500Q85 500 122
535T179 641H217L199 500Z" />
<glyph unicode="u" glyph-name="u" horiz-adv-x="593" d="M173 511T193 486T214 414Q214 378 198 264Q197 255 189 197T181 99Q181 75 191 56T228 36Q272 36 316 102T388 266T417 447Q417 466 415 500H499Q500 491 500 474Q500 450 495 400T480 270L470 187Q469
174 465 139T461 84Q461 40 488 40Q507 40 527 63T561 136L589 130Q584 102 568 69T524 13T459 -11Q420 -11 401 13T382 79Q382 123 400 213H397Q349 84 305 37T208 -11Q152 -11 126 25T99 119Q99 162 104 206T119 312Q121 323 126 358T131 414Q131 437 126 449T104
461Q86 461 67 438T34 364L6 370Q15 419 47 465T133 511Q173 511 193 486Z" />
<glyph unicode="v" glyph-name="v" horiz-adv-x="526" d="M422 511T453 462T485 336Q485 270 460 201Q439 146 402 98T318 19T220 -11Q160 -11 134 29T108 132Q108 186 113 246T120 317Q128 383 128 415Q128 436 122 448T100 460Q82 460 64 436T32 362L4 369Q9
398 24 430T66 487T132 511Q171 511 191 485T211 409Q211 366 200 232Q192 130 192 108Q192 79 201 61T238 43Q271 43 308 68T376 135T422 224Q428 242 432 270T437 328Q437 370 426 401T388 444Q377 419 348 419Q332 419 320 429T306 461Q306 480 320 495T363
511Q422 511 453 462Z" />
<glyph unicode="w" glyph-name="w" horiz-adv-x="801" d="M698 511T729 461T760 336Q760 270 735 201Q701 108 633 49T483 -11Q440 -11 411 17T381 112Q381 130 382 140H380Q359 78 310 34T208 -11Q153 -11 129 24T104 119Q104 159 109 211T120 309Q130 395 130
414Q130 437 125 449T103 461Q85 461 66 438T33 364L5 370Q14 419 46 465T132 511Q172 511 192 486T213 414Q213 358 197 228Q186 131 186 102Q186 76 196 59T229 42Q273 42 313 84T378 204T403 388Q403 444 396 500H482Q486 485 486 455Q486 407 481 362T467 255Q462
218 458 182T453 119Q453 84 465 63T508 41Q564 41 617 93T696 224Q702 243 706 271T711 329Q711 423 663 444Q652 419 622 419Q606 419 593 430T580 462Q580 481 594 496T640 511Q698 511 729 461Z" />
<glyph unicode="x" glyph-name="x" horiz-adv-x="545" d="M487 511T501 498T515 462Q515 445 503 432T474 419Q455 419 447 427T428 449Q373 441 302 265L309 247Q350 141 377 96T428 50Q464 50 479 129L507 125Q489 -11 407 -11Q373 -11 352 4T310 62T250 202H249Q218
110 188 64T133 3T77 -11Q49 -11 32 3T15 40Q15 60 27 73T56 86Q91 86 94 45Q155 32 230 252Q210 306 204 324Q176 400 163 425T129 450Q83 450 78 352L49 351Q49 409 72 460T155 511Q185 511 203 495T234 452T266 366Q272 345 284 314H285Q331 429 376 470T461
511Q487 511 501 498Z" />
<glyph unicode="y" glyph-name="y" horiz-adv-x="514" d="M428 511T447 474T466 383Q466 292 430 193T333 -17Q261 -149 196 -210T69 -271Q33 -271 11 -253T-12 -208Q-12 -187 1 -175T29 -162Q50 -162 61 -175T72 -214Q86 -221 94 -221Q132 -223 175 -173T247
-75Q229 48 197 173T125 395Q113 421 104 433T79 446Q62 446 52 425T41 368Q41 351 42 342L10 338Q9 348 9 368Q9 427 30 469T101 511Q146 511 171 480T214 398Q234 344 250 282T288 121Q294 92 303 19H305Q353 103 386 195T419 363Q419 387 415 406T404 434Q395
428 379 428Q361 428 350 439T339 467Q339 488 353 499T386 511Q428 511 447 474Z" />
<glyph unicode="z" glyph-name="z" horiz-adv-x="471" d="M431 484L386 429Q275 293 230 235L200 197Q121 95 82 42H83Q106 69 133 81T198 94Q214 94 233 89T271 77Q293 69 307 65T336 61Q391 61 391 115Q391 133 384 153L411 162Q423 128 423 96Q423 49 393 19T318
-11Q298 -11 278 -7T229 7Q201 16 181 20T141 25Q116 25 95 18T50 -11L18 14Q86 114 213 280Q267 351 353 455H351Q313 414 268 414L257 415Q244 416 230 420T202 429Q182 436 168 439T139 443Q117 443 101 430T84 385Q84 367 91 347L64 338Q51 375 51 404Q51 451
82 481T159 511Q179 511 195 507T235 495Q258 487 274 483T311 479Q330 479 354 486T401 512L431 484Z" />
<glyph unicode="{" glyph-name="braceleft" horiz-adv-x="332" d="M345 726Q270 728 240 693T204 569Q203 538 206 481Q210 415 208 392Q205 334 173 301T93 258V256Q137 248 165 216T194 130Q194 112 190 77T183 29Q173 -39 172 -61Q171 -71 171 -89Q171 -167
199 -206T296 -243L294 -271H266Q176 -271 138 -223T99 -81Q99 -59 100 -47Q101 -23 105 7T110 46Q111 57 115 89T119 143Q119 189 99 210T28 231H5L8 284H31Q91 284 112 312T133 407Q133 424 131 464Q129 504 129 525Q129 609 146 660T205 735T319 760H347L345
726Z" />
<glyph unicode="|" glyph-name="bar" horiz-adv-x="235" d="M118 -271H55L106 760H176L118 -271Z" />
<glyph unicode="}" glyph-name="braceright" horiz-adv-x="332" d="M-21 -237Q54 -239 84 -204T120 -80Q121 -49 118 8Q114 74 116 97Q119 155 151 188T231 231V233Q187 241 159 273T130 359Q130 377 134 412T141 460Q151 528 152 550Q153 560 153 578Q153 656
125 695T28 732L30 760H58Q148 760 186 712T225 570Q225 548 224 536Q223 512 219 482T214 443Q213 432 209 400T205 346Q205 300 225 279T296 258H319L316 205H293Q233 205 212 177T191 82Q191 65 193 25Q195 -15 195 -36Q195 -120 178 -171T119 -246T5 -271H-23L-21
-237Z" />
<glyph unicode="~" glyph-name="asciitilde" horiz-adv-x="572" d="M237 370T260 360T312 328Q333 311 350 303T392 294Q451 294 511 342L508 283Q454 231 382 231Q347 231 323 241T273 271Q250 288 232 296T188 304Q151 304 126 293T62 258L65 317Q103 345 132
357T198 370Q237 370 260 360Z" />
<glyph unicode="&#xa0;" glyph-name="uni00A0" horiz-adv-x="263" />
<glyph unicode="&#xa1;" glyph-name="exclamdown" horiz-adv-x="253" d="M69 -216T56 -199T43 -157Q43 -148 44 -143L103 270H140L155 -143Q156 -172 140 -194T95 -216Q69 -216 56 -199ZM103 387T88 404T72 448Q72 476 91 496T135 516Q158 516 173 499T189 456Q189
428 170 408T127 387Q103 387 88 404Z" />
<glyph unicode="&#xa2;" glyph-name="cent" horiz-adv-x="482" d="M321 507Q370 497 400 466T430 394Q430 371 418 358T386 345Q366 345 356 358T345 385Q345 409 358 423Q353 450 332 463T279 477Q200 477 165 403T129 231Q129 131 162 84T251 36Q294 36 335
68T404 168L439 152Q406 77 360 37T258 -11L247 -129H195L205 -11Q127 -3 84 52T41 208Q41 276 65 344T140 459T264 511L273 622H332L321 507Z" />
<glyph unicode="&#xa3;" glyph-name="sterling" horiz-adv-x="547" d="M369 716T402 697T449 650T463 596Q463 575 452 562T422 549Q404 549 395 561T385 587Q385 611 398 624Q393 646 373 662T320 679Q266 679 233 638T196 537Q195 527 195 508Q195 462 207 384Q209
376 211 360H365L362 312H218Q219 304 220 288T221 260Q221 246 220 238Q219 206 203 173T159 109Q183 113 215 113Q249 113 278 104T346 78Q365 70 382 64T413 57Q436 57 451 72T470 120H501Q495 58 467 21T391 -16Q364 -16 339 -5T277 29Q237 53 211 64T155 76Q144
76 139 75Q133 37 112 11T66 -16Q49 -16 39 -6T29 19Q29 46 54 68T119 101Q134 122 143 152T152 216Q152 255 141 312H59L62 360H130Q118 413 118 468Q118 487 119 497Q122 562 148 612T218 689T314 716Q369 716 402 697Z" />
<glyph unicode="&#xa4;" glyph-name="currency" horiz-adv-x="555" d="M490 444L425 375Q460 321 458 254Q453 188 416 140L472 72L432 40L382 105Q332 67 264 67Q198 67 150 105L95 40L58 72L120 139Q91 185 91 244Q91 278 102 312T136 375L79 444L120 477L170
409Q219 448 285 448Q350 448 395 409L453 477L490 444ZM248 413T224 390T188 333T175 271Q171 210 192 158T267 106Q305 106 329 134T365 202T376 278Q376 327 354 370T283 413Q248 413 224 390Z" />
<glyph unicode="&#xa5;" glyph-name="yen" horiz-adv-x="699" d="M697 667Q650 664 617 635T543 538Q510 483 444 369L413 315H533L531 272L402 271L398 208L528 207L526 164L396 163Q392 119 394 119Q393 72 387 40L470 44L468 0H237L239 33Q274 34 289 49T308
85T313 156V163L180 162L183 209L315 208L319 270L318 271L186 270L189 317L292 316L161 545Q117 621 113 658L51 656L53 700H307L305 667Q224 667 224 620Q224 596 246 558L261 532Q324 419 376 341H378Q427 427 495 541Q511 569 520 583Q552 638 572 659L493
656L495 700H699L697 667Z" />
<glyph unicode="&#xa6;" glyph-name="brokenbar" horiz-adv-x="261" d="M165 388H102L118 760H188L165 388ZM131 -271H68L84 101H154L131 -271Z" />
<glyph unicode="&#xa7;" glyph-name="section" horiz-adv-x="524" d="M349 760T389 743T451 698T473 640Q473 617 462 601T427 585Q407 585 397 597T387 626Q387 642 399 660Q400 684 369 703T298 722Q253 722 224 704T181 660T167 609Q167 574 186 546T234 497T313
445Q370 410 405 384T462 318T482 227Q480 183 454 138T382 58Q420 13 420 -43L419 -58Q417 -94 396 -133T330 -200T219 -228Q168 -228 128 -211T66 -165T44 -107Q44 -85 56 -69T90 -52Q110 -52 120 -64T130 -93Q130 -113 118 -127Q117 -151 148 -170T219 -189Q292
-189 322 -155T352 -75Q352 -32 322 -2T221 74Q152 119 118 145T58 211T37 306Q39 348 64 394T132 475Q98 517 98 575Q98 611 118 654T183 728T298 760Q349 760 389 743ZM134 427T123 394T112 330Q112 288 132 257T183 202T263 149Q333 107 362 80Q384 103 395
136T407 203Q407 245 387 276T336 330T256 382Q187 421 154 452Q134 427 123 394Z" />
<glyph unicode="&#xa8;" glyph-name="dieresis" horiz-adv-x="351" d="M82 616T70 631T57 668Q57 692 72 708T106 725Q124 725 136 711T148 675Q148 651 134 634T101 616Q82 616 70 631ZM229 616T217 631T204 668Q204 692 219 708T253 725Q271 725 283 711T295
675Q295 651 281 634T248 616Q229 616 217 631Z" />
<glyph unicode="&#xa9;" glyph-name="copyright" horiz-adv-x="876" d="M573 750T658 700T791 564T838 372Q838 258 782 161T629 7T420 -50Q307 -50 222 -3T91 129T45 322Q45 438 99 536T250 692T463 750Q573 750 658 700ZM357 704T278 654T154 517T109 326Q109
236 146 161T255 42T424 -2Q526 -2 606 49T730 185T774 369Q774 459 735 536T624 658T458 704Q357 704 278 654ZM499 599T533 588T592 558H593L591 594H639L630 426H592Q588 488 554 518T464 548Q423 548 384 524T319 454T293 345Q293 293 315 252T376 186T466
162Q501 162 543 182T613 235L642 204Q599 149 542 126T433 102Q368 102 316 132T234 215T204 332Q204 395 235 457T325 559T463 599Q499 599 533 588Z" />
<glyph unicode="&#xaa;" glyph-name="ordfeminine" horiz-adv-x="402" d="M290 716T335 706L331 673Q307 489 307 451Q307 434 309 426T318 417Q329 417 338 427T356 469L378 464Q369 428 352 404T300 380Q275 380 265 395T254 438Q254 467 266 522H264Q237 438
206 409T140 380Q64 380 64 490Q64 586 110 651T245 716Q290 716 335 706ZM174 688T147 635T120 501Q120 420 157 420Q182 420 208 461T253 563T273 680Q255 688 231 688Q174 688 147 635Z" />
<glyph unicode="&#xab;" glyph-name="guillemotleft" horiz-adv-x="517" d="M25 264V268L319 548L343 521L124 264V262L306 19L277 -7L25 264ZM238 267V270L450 464L475 439L338 272V270L450 103L421 77L238 267Z" />
<glyph unicode="&#xac;" glyph-name="logicalnot" d="M516 342L507 157H459L461 287L68 285L71 344L516 342Z" />
<glyph unicode="&#xad;" glyph-name="uni00AD" horiz-adv-x="482" d="M419 290L64 286V353H419V290Z" />
<glyph unicode="&#xae;" glyph-name="registered" horiz-adv-x="876" d="M573 750T658 700T791 564T838 372Q838 258 782 161T629 7T420 -50Q307 -50 222 -3T91 129T45 322Q45 438 99 536T250 692T463 750Q573 750 658 700ZM357 704T278 654T154 517T109 326Q109
236 146 161T255 42T424 -2Q526 -2 606 49T730 185T774 369Q774 459 735 536T624 658T458 704Q357 704 278 654ZM540 598T582 563T625 474Q625 432 596 392T498 333V332Q515 322 536 291Q570 235 590 209T623 174T653 166L651 132H569Q555 135 539 154T498 212Q480
239 459 274L429 322Q391 322 374 325L369 225Q368 197 364 174L412 176V136H247L249 170Q272 170 283 180T297 205T301 250L315 511Q317 545 319 559L269 554L271 596Q396 601 452 600Q540 598 582 563ZM418 558T404 548T387 522T382 473L376 365H377Q409 363
426 364Q472 366 512 392T552 471Q552 511 522 534T448 558Q418 558 404 548Z" />
<glyph unicode="&#xaf;" glyph-name="overscore" horiz-adv-x="358" d="M48 701H313L310 649L45 645L48 701Z" />
<glyph unicode="&#xb0;" glyph-name="degree" horiz-adv-x="387" d="M286 716T324 676T362 573Q362 527 341 491T283 434T202 413Q135 413 97 451T59 553Q59 597 81 634T140 694T220 716Q286 716 324 676ZM174 670T147 637T119 557Q119 516 143 488T206 459Q248
459 275 492T303 569Q303 611 279 640T216 670Q174 670 147 637Z" />
<glyph unicode="&#xb1;" glyph-name="plusminus" horiz-adv-x="568" d="M315 357L509 356L506 304L313 303L304 135H244L252 302H61L64 358L255 357L264 516H324L315 357ZM490 0H45L48 50L493 54L490 0Z" />
<glyph unicode="&#xb2;" glyph-name="uni00B2" horiz-adv-x="374" d="M259 716T292 691T325 616Q325 579 301 543T199 453Q161 426 140 404T111 360L200 358L237 357Q267 357 282 365T299 398H323L314 306H58Q61 362 93 403T185 492Q257 549 257 614Q257 645 241
663T195 682Q171 682 152 668T129 637Q138 628 138 612Q138 601 130 593T109 584Q98 584 90 593T81 615Q81 637 97 660T142 700T210 716Q259 716 292 691Z" />
<glyph unicode="&#xb3;" glyph-name="uni00B3" horiz-adv-x="358" d="M252 716T282 691T312 623Q312 595 288 568T221 530Q270 526 295 499T321 430Q321 376 282 341T176 306Q122 306 90 331T57 395Q57 412 66 425T92 439Q106 439 113 430T121 409Q121 393 111
382Q112 362 130 350T173 338Q212 338 235 366T259 429Q259 461 240 486T177 512Q158 512 148 511L149 538H161Q215 538 234 566T254 618Q254 647 239 666T192 685Q166 685 149 672T126 639Q133 630 133 618Q133 607 125 599T104 591Q92 592 85 600T78 621Q78 642
93 664T137 701T201 716Q252 716 282 691Z" />
<glyph unicode="&#xb4;" glyph-name="acute" horiz-adv-x="240" d="M45 599L123 731Q142 763 165 763Q177 763 185 755Q195 745 195 731Q195 710 172 686L69 579L45 599Z" />
<glyph unicode="&#xb5;" glyph-name="uni00B5" horiz-adv-x="592" d="M457 136Q456 127 456 112Q456 75 466 59T496 42Q516 42 540 60L549 44Q533 23 505 6T445 -11Q412 -11 399 8T380 58Q313 -11 231 -11Q189 -11 164 8T121 72H118Q117 19 121 -24T134 -132Q144
-197 142 -220Q141 -242 132 -256T102 -271Q75 -271 66 -251T58 -188L94 500H172L158 242Q157 228 157 202Q157 125 179 83T255 40Q291 40 324 57T378 105L399 500H475L457 136Z" />
<glyph unicode="&#xb6;" glyph-name="paragraph" horiz-adv-x="490" d="M367 -255H301L349 659L262 657L213 -255H146L183 408Q128 412 89 445T50 542Q50 592 71 627T126 681T199 700H417L367 -255Z" />
<glyph unicode="&#xb7;" glyph-name="middot" horiz-adv-x="237" d="M148 389T162 372T177 330Q177 302 159 283T117 263Q94 263 79 280T63 324Q63 351 82 370T125 389Q148 389 162 372Z" />
<glyph unicode="&#xb8;" glyph-name="cedilla" horiz-adv-x="293" d="M45 -209Q101 -199 137 -180T173 -133Q173 -117 164 -110T139 -102Q115 -102 93 -117L59 -100L94 8H144L114 -77Q144 -58 181 -58Q212 -58 229 -74T247 -117Q247 -174 187 -201T49 -240L45 -209Z" />
<glyph unicode="&#xb9;" glyph-name="uni00B9" horiz-adv-x="270" d="M182 382Q180 355 177 343L229 345L227 311H74L75 339Q103 339 114 358T128 412L140 646H138L74 609L60 635L173 716H198L182 382Z" />
<glyph unicode="&#xba;" glyph-name="ordmasculine" horiz-adv-x="362" d="M268 716T301 677T335 573Q335 521 317 476T263 403T181 375Q122 375 92 417T61 523Q61 575 80 619T134 689T216 716Q268 716 301 677ZM168 687T145 645T121 537Q121 485 136 446T189
407Q232 407 253 455T275 560Q275 612 260 649T207 687Q168 687 145 645Z" />
<glyph unicode="&#xbb;" glyph-name="guillemotright" horiz-adv-x="521" d="M487 277V273L193 -7L169 20L388 277V279L206 522L235 548L487 277ZM274 274V271L62 77L37 102L174 269V271L62 438L91 464L274 274Z" />
<glyph unicode="&#xbc;" glyph-name="onequarter" horiz-adv-x="718" d="M182 382Q180 355 177 343L229 345L227 311H74L75 339Q103 339 114 358T128 412L140 646H138L74 609L60 635L173 716H198L182 382ZM623 689L118 -16L87 7L588 716L623 689ZM504 4L505 33Q534
34 545 50T558 97V109H389L391 139L602 415H629L616 146L672 145L670 109H614L610 36L652 38L650 4H504ZM561 147L571 326H570L437 149L561 147Z" />
<glyph unicode="&#xbd;" glyph-name="onehalf" horiz-adv-x="733" d="M182 382Q180 355 177 343L229 345L227 311H74L75 339Q103 339 114 358T128 412L140 646H138L74 609L60 635L173 716H198L182 382ZM615 689L110 -16L79 7L580 716L615 689ZM621 414T654 389T687
314Q687 277 663 241T561 151Q523 124 502 102T473 58L562 56L599 55Q629 55 644 63T661 96H685L676 4H420Q423 60 455 101T547 190Q619 247 619 312Q619 343 603 361T557 380Q533 380 514 366T491 335Q500 326 500 310Q500 299 492 291T471 282Q460 282 452 291T443
313Q443 335 459 358T504 398T572 414Q621 414 654 389Z" />
<glyph unicode="&#xbe;" glyph-name="threequarters" horiz-adv-x="793" d="M252 716T282 691T312 623Q312 595 288 568T221 530Q270 526 295 499T321 430Q321 376 282 341T176 306Q122 306 90 331T57 395Q57 412 66 425T92 439Q106 439 113 430T121 409Q121 393
111 382Q112 362 130 350T173 338Q212 338 235 366T259 429Q259 461 240 486T177 512Q158 512 148 511L149 538H161Q215 538 234 566T254 618Q254 647 239 666T192 685Q166 685 149 672T126 639Q133 630 133 618Q133 607 125 599T104 591Q92 592 85 600T78 621Q78
642 93 664T137 701T201 716Q252 716 282 691ZM688 689L183 -16L152 7L653 716L688 689ZM579 4L580 33Q609 34 620 50T633 97V109H464L466 139L677 415H704L691 146L747 145L745 109H689L685 36L727 38L725 4H579ZM636 147L646 326H645L512 149L636 147Z" />
<glyph unicode="&#xbf;" glyph-name="questiondown" horiz-adv-x="465" d="M103 -216T58 -173T12 -65Q12 -49 13 -42Q19 11 57 52T161 143Q206 177 226 196T246 235Q246 248 237 257T207 266Q186 266 168 259L158 294Q188 312 238 312Q263 312 289 295T314 245Q312
219 292 197T230 139Q172 93 140 53T103 -44Q102 -50 102 -63Q102 -115 129 -146T217 -177Q245 -177 270 -167T311 -140T332 -107Q317 -95 317 -68Q317 -49 329 -36T362 -23Q382 -23 395 -36T409 -72Q409 -103 382 -137T308 -193T200 -216Q103 -216 58 -173ZM217
398T203 414T188 453Q188 479 204 497T245 516Q267 516 282 500T296 457Q295 433 277 416T238 398Q217 398 203 414Z" />
<glyph unicode="&#xc0;" glyph-name="Agrave" horiz-adv-x="631" d="M532 150Q541 124 548 92T553 40L618 44L616 0H399L400 33Q460 34 460 83Q460 100 452 128L423 222L167 216L127 109Q112 70 96 40L171 44L169 0H-14L-13 33Q22 34 44 64T93 158L319 719H341L532
150ZM305 580L263 468Q251 439 202 308L183 259H412Q355 438 307 580H305ZM222 855Q190 875 190 898Q190 910 197 917Q208 928 221 928Q239 928 262 908L389 790L368 762L222 855Z" />
<glyph unicode="&#xc1;" glyph-name="Aacute" horiz-adv-x="631" d="M532 150Q541 124 548 92T553 40L618 44L616 0H399L400 33Q460 34 460 83Q460 100 452 128L423 222L167 216L127 109Q112 70 96 40L171 44L169 0H-14L-13 33Q22 34 44 64T93 158L319 719H341L532
150ZM305 580L263 468Q251 439 202 308L183 259H412Q355 438 307 580H305ZM284 790L411 908Q434 928 452 928Q465 928 476 917Q483 910 483 898Q483 875 451 855L305 762L284 790Z" />
<glyph unicode="&#xc2;" glyph-name="Acircumflex" horiz-adv-x="631" d="M532 150Q541 124 548 92T553 40L618 44L616 0H399L400 33Q460 34 460 83Q460 100 452 128L423 222L167 216L127 109Q112 70 96 40L171 44L169 0H-14L-13 33Q22 34 44 64T93 158L319 719H341L532
150ZM305 580L263 468Q251 439 202 308L183 259H412Q355 438 307 580H305ZM327 852H325L155 765L140 792L336 932H338L519 791L501 763L327 852Z" />
<glyph unicode="&#xc3;" glyph-name="Atilde" horiz-adv-x="631" d="M532 150Q541 124 548 92T553 40L618 44L616 0H399L400 33Q460 34 460 83Q460 100 452 128L423 222L167 216L127 109Q112 70 96 40L171 44L169 0H-14L-13 33Q22 34 44 64T93 158L319 719H341L532
150ZM305 580L263 468Q251 439 202 308L183 259H412Q355 438 307 580H305ZM203 850T164 793L136 810Q156 854 190 880T257 907Q285 907 304 898T349 869Q369 855 381 848T410 841Q460 841 497 900L523 886Q501 829 470 807T401 784Q377 784 358 793T315 820Q292
836 278 843T246 850Q203 850 164 793Z" />
<glyph unicode="&#xc4;" glyph-name="Adieresis" horiz-adv-x="631" d="M532 150Q541 124 548 92T553 40L618 44L616 0H399L400 33Q460 34 460 83Q460 100 452 128L423 222L167 216L127 109Q112 70 96 40L171 44L169 0H-14L-13 33Q22 34 44 64T93 158L319 719H341L532
150ZM305 580L263 468Q251 439 202 308L183 259H412Q355 438 307 580H305ZM226 780T213 796T199 837Q199 863 215 881T253 899Q272 899 284 884T297 844Q297 818 282 799T246 780Q226 780 213 796ZM388 780T375 796T361 837Q361 863 377 881T414 899Q434 899 446
883T459 842Q459 816 444 798T407 780Q388 780 375 796Z" />
<glyph unicode="&#xc5;" glyph-name="Aring" horiz-adv-x="631" d="M532 150Q541 124 548 92T553 40L618 44L616 0H399L400 33Q460 34 460 83Q460 100 452 128L423 222L167 216L127 109Q112 70 96 40L171 44L169 0H-14L-13 33Q22 34 44 64T93 158L319 719H341L532
150ZM305 580L263 468Q251 439 202 308L183 259H412Q355 438 307 580H305ZM283 719T251 746T218 826Q218 874 251 905T328 936Q374 936 407 909T440 830Q440 781 407 750T330 719Q283 719 251 746ZM354 749T370 769T387 820Q387 863 371 885T328 907Q303 907 287
886T271 832Q271 796 288 773T332 749Q354 749 370 769Z" />
<glyph unicode="&#xc6;" glyph-name="AE" horiz-adv-x="955" d="M887 525H854Q858 607 824 637T726 665L640 663Q604 662 588 650T566 616T558 544L549 383H623Q671 383 695 388T731 414T746 477H779L768 259H735Q737 302 727 320T694 343T621 347Q595 347 547
345L535 118Q532 62 528 40L721 37Q790 36 828 73T871 195H905L889 0H377L379 36Q421 37 436 58T453 130L458 221L214 216L87 41V40L164 44L162 0H-24L-22 33Q12 33 36 56T94 125L482 659L483 660L393 656L395 700H891L887 525ZM475 582L245 259H460L476 582H475Z"
/>
<glyph unicode="&#xc7;" glyph-name="Ccedilla" horiz-adv-x="689" d="M470 716T518 702T611 656L609 710H663L651 479H615Q610 572 558 623T417 675Q343 675 281 632T181 511T144 331Q144 245 177 178T267 73T396 36Q463 36 526 65T632 148L657 127Q594 48 518
16T367 -16H350L327 -75Q341 -67 361 -62T395 -57Q429 -57 446 -75T463 -121Q463 -178 397 -209T255 -251L249 -218Q304 -208 342 -186T381 -135Q381 -120 372 -112T346 -104Q318 -104 299 -119L267 -102L296 -9Q221 6 166 52T80 166T50 316Q50 418 91 509T215
658T413 716Q470 716 518 702Z" />
<glyph unicode="&#xc8;" glyph-name="Egrave" horiz-adv-x="619" d="M551 525H518Q522 607 488 637T390 665L304 663Q268 662 252 650T230 616T222 544L213 384L285 383Q332 382 357 388T395 414T410 477H443L432 259H399Q400 297 393 316T367 341T316 348L284
347L211 344L199 115Q196 59 192 37L383 40Q453 41 492 75T535 195H569L553 0H41L43 33Q78 34 93 49T112 85T118 156L142 588Q143 622 149 660L76 656L78 700H555L551 525ZM263 855Q231 875 231 898Q231 910 238 917Q249 928 262 928Q280 928 303 908L430 790L409
762L263 855Z" />
<glyph unicode="&#xc9;" glyph-name="Eacute" horiz-adv-x="619" d="M551 525H518Q522 607 488 637T390 665L304 663Q268 662 252 650T230 616T222 544L213 384L285 383Q332 382 357 388T395 414T410 477H443L432 259H399Q400 297 393 316T367 341T316 348L284
347L211 344L199 115Q196 59 192 37L383 40Q453 41 492 75T535 195H569L553 0H41L43 33Q78 34 93 49T112 85T118 156L142 588Q143 622 149 660L76 656L78 700H555L551 525ZM325 790L452 908Q475 928 493 928Q506 928 517 917Q524 910 524 898Q524 875 492 855L346
762L325 790Z" />
<glyph unicode="&#xca;" glyph-name="Ecircumflex" horiz-adv-x="619" d="M551 525H518Q522 607 488 637T390 665L304 663Q268 662 252 650T230 616T222 544L213 384L285 383Q332 382 357 388T395 414T410 477H443L432 259H399Q400 297 393 316T367 341T316 348L284
347L211 344L199 115Q196 59 192 37L383 40Q453 41 492 75T535 195H569L553 0H41L43 33Q78 34 93 49T112 85T118 156L142 588Q143 622 149 660L76 656L78 700H555L551 525ZM368 852H366L196 765L181 792L377 932H379L560 791L542 763L368 852Z" />
<glyph unicode="&#xcb;" glyph-name="Edieresis" horiz-adv-x="619" d="M551 525H518Q522 607 488 637T390 665L304 663Q268 662 252 650T230 616T222 544L213 384L285 383Q332 382 357 388T395 414T410 477H443L432 259H399Q400 297 393 316T367 341T316 348L284
347L211 344L199 115Q196 59 192 37L383 40Q453 41 492 75T535 195H569L553 0H41L43 33Q78 34 93 49T112 85T118 156L142 588Q143 622 149 660L76 656L78 700H555L551 525ZM267 780T254 796T240 837Q240 863 256 881T294 899Q313 899 325 884T338 844Q338 818 323
799T287 780Q267 780 254 796ZM429 780T416 796T402 837Q402 863 418 881T455 899Q475 899 487 883T500 842Q500 816 485 798T448 780Q429 780 416 796Z" />
<glyph unicode="&#xcc;" glyph-name="Igrave" horiz-adv-x="333" d="M297 667Q263 666 248 653T228 619T222 554L199 119Q198 72 192 40L264 44L262 0H41L43 33Q78 34 93 49T112 85T118 156L141 588Q142 622 148 660L76 656L78 700H299L297 667ZM97 855Q65 875
65 898Q65 910 72 917Q83 928 96 928Q114 928 137 908L264 790L243 762L97 855Z" />
<glyph unicode="&#xcd;" glyph-name="Iacute" horiz-adv-x="333" d="M297 667Q263 666 248 653T228 619T222 554L199 119Q198 72 192 40L264 44L262 0H41L43 33Q78 34 93 49T112 85T118 156L141 588Q142 622 148 660L76 656L78 700H299L297 667ZM159 790L286 908Q309
928 327 928Q340 928 351 917Q358 910 358 898Q358 875 326 855L180 762L159 790Z" />
<glyph unicode="&#xce;" glyph-name="Icircumflex" horiz-adv-x="332" d="M200 932L354 791L335 764L191 852H189L48 772L32 792L199 932H200ZM297 667Q263 666 248 653T228 619T222 554L199 119Q198 72 192 40L264 44L262 0H41L43 33Q78 34 93 49T112 85T118
156L141 588Q142 622 148 660L76 656L78 700H299L297 667Z" />
<glyph unicode="&#xcf;" glyph-name="Idieresis" horiz-adv-x="333" d="M144 897T156 881T169 840Q169 814 154 796T118 778Q98 778 85 794T71 835Q71 861 87 879T125 897Q144 897 156 881ZM296 897T308 882T321 842Q321 816 306 797T270 778Q250 778 237 794T223
835Q223 861 239 879T277 897Q296 897 308 882ZM297 667Q263 666 248 653T228 619T222 554L199 119Q198 72 192 40L264 44L262 0H41L43 33Q78 34 93 49T112 85T118 156L141 588Q142 622 148 660L76 656L78 700H299L297 667Z" />
<glyph unicode="&#xd0;" glyph-name="Eth" horiz-adv-x="738" d="M489 702T592 620T695 376Q695 275 650 190T516 52T299 0H40L42 33Q77 34 92 49T111 85T117 156L127 329L24 328L26 378H129L141 588Q145 638 148 660L74 656L77 700L309 701Q489 702 592 620ZM387
38T456 83T563 206T602 380Q602 513 527 588T303 664Q266 664 250 653T228 620T221 551L212 378H342L340 332L209 330L198 118Q195 62 191 40Q235 38 298 38Q387 38 456 83Z" />
<glyph unicode="&#xd1;" glyph-name="Ntilde" horiz-adv-x="762" d="M741 667Q709 666 694 654T675 622T669 564L668 544L640 -11H592L183 573H181L165 139Q164 129 164 110Q162 62 158 40L230 44L228 0H45L46 33Q113 33 116 112L143 660L76 656L78 700H197L599
128H601L622 588Q625 637 629 660L557 656L559 700H743L741 667ZM286 850T247 793L219 810Q239 854 273 880T340 907Q368 907 387 898T432 869Q452 855 464 848T493 841Q543 841 580 900L606 886Q584 829 553 807T484 784Q460 784 441 793T398 820Q375 836 361
843T329 850Q286 850 247 793Z" />
<glyph unicode="&#xd2;" glyph-name="Ograve" horiz-adv-x="788" d="M524 716T599 666T710 536T746 369Q746 279 705 190T581 43T382 -16Q271 -16 196 34T85 162T49 327Q49 431 94 520T222 662T413 716Q524 716 599 666ZM328 676T268 627T177 501T145 343Q145
268 170 195T250 74T387 25Q469 25 528 73T619 197T650 353Q650 434 622 508T539 629T408 676Q328 676 268 627ZM317 855Q285 875 285 898Q285 910 292 917Q303 928 316 928Q334 928 357 908L484 790L463 762L317 855Z" />
<glyph unicode="&#xd3;" glyph-name="Oacute" horiz-adv-x="788" d="M524 716T599 666T710 536T746 369Q746 279 705 190T581 43T382 -16Q271 -16 196 34T85 162T49 327Q49 431 94 520T222 662T413 716Q524 716 599 666ZM328 676T268 627T177 501T145 343Q145
268 170 195T250 74T387 25Q469 25 528 73T619 197T650 353Q650 434 622 508T539 629T408 676Q328 676 268 627ZM379 790L506 908Q529 928 547 928Q560 928 571 917Q578 910 578 898Q578 875 546 855L400 762L379 790Z" />
<glyph unicode="&#xd4;" glyph-name="Ocircumflex" horiz-adv-x="788" d="M524 716T599 666T710 536T746 369Q746 279 705 190T581 43T382 -16Q271 -16 196 34T85 162T49 327Q49 431 94 520T222 662T413 716Q524 716 599 666ZM328 676T268 627T177 501T145 343Q145
268 170 195T250 74T387 25Q469 25 528 73T619 197T650 353Q650 434 622 508T539 629T408 676Q328 676 268 627ZM422 852H420L250 765L235 792L431 932H433L614 791L596 763L422 852Z" />
<glyph unicode="&#xd5;" glyph-name="Otilde" horiz-adv-x="788" d="M524 716T599 666T710 536T746 369Q746 279 705 190T581 43T382 -16Q271 -16 196 34T85 162T49 327Q49 431 94 520T222 662T413 716Q524 716 599 666ZM328 676T268 627T177 501T145 343Q145
268 170 195T250 74T387 25Q469 25 528 73T619 197T650 353Q650 434 622 508T539 629T408 676Q328 676 268 627ZM298 850T259 793L231 810Q251 854 285 880T352 907Q380 907 399 898T444 869Q464 855 476 848T505 841Q555 841 592 900L618 886Q596 829 565 807T496
784Q472 784 453 793T410 820Q387 836 373 843T341 850Q298 850 259 793Z" />
<glyph unicode="&#xd6;" glyph-name="Odieresis" horiz-adv-x="788" d="M524 716T599 666T710 536T746 369Q746 279 705 190T581 43T382 -16Q271 -16 196 34T85 162T49 327Q49 431 94 520T222 662T413 716Q524 716 599 666ZM328 676T268 627T177 501T145 343Q145
268 170 195T250 74T387 25Q469 25 528 73T619 197T650 353Q650 434 622 508T539 629T408 676Q328 676 268 627ZM321 780T308 796T294 837Q294 863 310 881T348 899Q367 899 379 884T392 844Q392 818 377 799T341 780Q321 780 308 796ZM483 780T470 796T456 837Q456
863 472 881T509 899Q529 899 541 883T554 842Q554 816 539 798T502 780Q483 780 470 796Z" />
<glyph unicode="&#xd7;" glyph-name="multiply" horiz-adv-x="534" d="M497 491L308 312L476 132L434 86L263 270L75 92L37 136L224 311L63 484L106 529L270 354L463 534L497 491Z" />
<glyph unicode="&#xd8;" glyph-name="Oslash" horiz-adv-x="787" d="M682 721L630 641Q687 591 716 519T745 369Q745 279 704 190T580 43T381 -16Q297 -16 228 16L168 -77L124 -50L182 42Q115 90 82 166T48 327Q48 431 93 520T221 662T412 716Q509 716 582 675L632
755L682 721ZM328 676T269 628T177 505T144 349Q142 285 161 218T220 103L547 621Q487 676 407 676Q328 676 269 628ZM259 65Q313 25 386 25Q468 25 527 73T618 197T649 353Q649 413 633 471T587 574L259 65Z" />
<glyph unicode="&#xd9;" glyph-name="Ugrave" horiz-adv-x="744" d="M742 667Q706 666 691 651T672 616T666 544L652 311Q644 166 575 75T366 -16Q268 -16 211 15T129 110T103 280Q103 298 105 340L118 579Q121 625 126 660L54 657L56 700H278L276 667Q232 667
218 644T202 588L189 335Q188 319 188 286Q188 173 229 107T381 41Q484 41 538 111T601 306L619 588Q623 638 626 660L554 656L556 700H743L742 667ZM308 855Q276 875 276 898Q276 910 283 917Q294 928 307 928Q325 928 348 908L475 790L454 762L308 855Z" />
<glyph unicode="&#xda;" glyph-name="Uacute" horiz-adv-x="744" d="M742 667Q706 666 691 651T672 616T666 544L652 311Q644 166 575 75T366 -16Q268 -16 211 15T129 110T103 280Q103 298 105 340L118 579Q121 625 126 660L54 657L56 700H278L276 667Q232 667
218 644T202 588L189 335Q188 319 188 286Q188 173 229 107T381 41Q484 41 538 111T601 306L619 588Q623 638 626 660L554 656L556 700H743L742 667ZM370 790L497 908Q520 928 538 928Q551 928 562 917Q569 910 569 898Q569 875 537 855L391 762L370 790Z" />
<glyph unicode="&#xdb;" glyph-name="Ucircumflex" horiz-adv-x="744" d="M742 667Q706 666 691 651T672 616T666 544L652 311Q644 166 575 75T366 -16Q268 -16 211 15T129 110T103 280Q103 298 105 340L118 579Q121 625 126 660L54 657L56 700H278L276 667Q232
667 218 644T202 588L189 335Q188 319 188 286Q188 173 229 107T381 41Q484 41 538 111T601 306L619 588Q623 638 626 660L554 656L556 700H743L742 667ZM413 852H411L241 765L226 792L422 932H424L605 791L587 763L413 852Z" />
<glyph unicode="&#xdc;" glyph-name="Udieresis" horiz-adv-x="744" d="M742 667Q706 666 691 651T672 616T666 544L652 311Q644 166 575 75T366 -16Q268 -16 211 15T129 110T103 280Q103 298 105 340L118 579Q121 625 126 660L54 657L56 700H278L276 667Q232
667 218 644T202 588L189 335Q188 319 188 286Q188 173 229 107T381 41Q484 41 538 111T601 306L619 588Q623 638 626 660L554 656L556 700H743L742 667ZM312 780T299 796T285 837Q285 863 301 881T339 899Q358 899 370 884T383 844Q383 818 368 799T332 780Q312
780 299 796ZM474 780T461 796T447 837Q447 863 463 881T500 899Q520 899 532 883T545 842Q545 816 530 798T493 780Q474 780 461 796Z" />
<glyph unicode="&#xdd;" glyph-name="Yacute" horiz-adv-x="641" d="M667 667Q620 664 587 635T513 538L431 398Q412 364 374 300L369 216Q363 120 364 119Q363 72 357 40L440 44L438 0H207L209 33Q244 34 259 49T278 85T283 156L289 270L131 545Q88 616 83 658L21
656L23 700H277L275 667Q195 667 195 620Q195 597 216 558L247 504Q302 407 346 341H348Q397 427 465 541Q481 569 490 583Q522 638 542 659L463 656L465 700H669L667 667ZM321 790L448 908Q471 928 489 928Q502 928 513 917Q520 910 520 898Q520 875 488 855L342
762L321 790Z" />
<glyph unicode="&#xde;" glyph-name="Thorn" horiz-adv-x="577" d="M297 667Q267 666 252 656T231 627T223 577Q241 578 275 578Q417 578 488 530T559 392Q559 337 528 285T421 196T217 159H201L199 107Q196 58 192 40L264 44L262 0H41L43 33Q78 34 93 49T112
85T118 156L141 588Q145 638 148 660L76 656L78 700H299L297 667ZM221 538L203 198Q217 197 228 197T248 198Q346 199 405 251T465 388Q465 465 412 502T267 539L221 538Z" />
<glyph unicode="&#xdf;" glyph-name="germandbls" horiz-adv-x="650" d="M439 760T481 740T542 690T561 624Q561 613 560 608Q554 566 531 539T469 481Q436 455 422 438T407 397Q407 375 426 356T489 305Q529 277 554 255T598 203T616 135Q616 71 570 30T448 -11Q384
-11 338 18T292 96Q292 117 305 131T336 145Q355 145 365 133T376 103Q376 85 368 72Q375 51 396 39T446 26Q534 26 534 121Q534 154 510 180T437 244Q386 283 361 312T337 378Q340 413 357 436T407 486Q443 516 462 543T485 614Q489 659 460 693T370 727Q301 727
264 687T209 571Q200 528 195 476T182 333Q178 264 175 236Q173 204 171 190Q159 37 143 -54T83 -208T-46 -271Q-85 -271 -105 -258T-126 -219Q-126 -205 -116 -191T-86 -177Q-67 -177 -57 -190T-46 -224Q-41 -227 -32 -229T-16 -232Q20 -232 39 -191T67 -85T83
107Q91 218 93 245L96 285Q106 403 113 458L23 457L28 500H120Q143 625 200 692T375 760Q439 760 481 740Z" />
<glyph unicode="&#xe0;" glyph-name="agrave" horiz-adv-x="548" d="M397 511T463 494Q419 168 419 94Q419 68 424 54T447 39Q466 39 486 63T520 136L548 130Q543 102 527 69T483 13T418 -11Q344 -11 344 79Q344 123 362 213H359Q317 81 267 35T164 -11Q106 -11
72 31T37 163Q37 259 70 338T169 464T329 511Q397 511 463 494ZM240 475T200 434T141 325T121 180Q121 33 186 33Q230 33 274 102T347 272T376 463Q346 475 298 475Q240 475 200 434ZM245 686Q222 710 222 731Q222 745 232 755Q240 763 252 763Q275 763 294 731L372
599L348 579L245 686Z" />
<glyph unicode="&#xe1;" glyph-name="aacute" horiz-adv-x="548" d="M397 511T463 494Q419 168 419 94Q419 68 424 54T447 39Q466 39 486 63T520 136L548 130Q543 102 527 69T483 13T418 -11Q344 -11 344 79Q344 123 362 213H359Q317 81 267 35T164 -11Q106 -11
72 31T37 163Q37 259 70 338T169 464T329 511Q397 511 463 494ZM240 475T200 434T141 325T121 180Q121 33 186 33Q230 33 274 102T347 272T376 463Q346 475 298 475Q240 475 200 434ZM243 599L321 731Q340 763 363 763Q375 763 383 755Q393 745 393 731Q393 710
370 686L267 579L243 599Z" />
<glyph unicode="&#xe2;" glyph-name="acircumflex" horiz-adv-x="548" d="M397 511T463 494Q419 168 419 94Q419 68 424 54T447 39Q466 39 486 63T520 136L548 130Q543 102 527 69T483 13T418 -11Q344 -11 344 79Q344 123 362 213H359Q317 81 267 35T164 -11Q106
-11 72 31T37 163Q37 259 70 338T169 464T329 511Q397 511 463 494ZM240 475T200 434T141 325T121 180Q121 33 186 33Q230 33 274 102T347 272T376 463Q346 475 298 475Q240 475 200 434ZM323 702H321L185 593L163 619L331 776H333L473 615L448 589L323 702Z" />
<glyph unicode="&#xe3;" glyph-name="atilde" horiz-adv-x="548" d="M397 511T463 494Q419 168 419 94Q419 68 424 54T447 39Q466 39 486 63T520 136L548 130Q543 102 527 69T483 13T418 -11Q344 -11 344 79Q344 123 362 213H359Q317 81 267 35T164 -11Q106 -11
72 31T37 163Q37 259 70 338T169 464T329 511Q397 511 463 494ZM240 475T200 434T141 325T121 180Q121 33 186 33Q230 33 274 102T347 272T376 463Q346 475 298 475Q240 475 200 434ZM359 617T343 624T305 646Q289 658 276 664T248 670Q230 670 210 658T175 625L150
638Q164 673 197 697T259 721Q282 721 297 714T334 692Q351 680 362 675T386 669Q427 669 460 720L484 708Q466 662 438 640T381 617Q359 617 343 624Z" />
<glyph unicode="&#xe4;" glyph-name="adieresis" horiz-adv-x="548" d="M397 511T463 494Q419 168 419 94Q419 68 424 54T447 39Q466 39 486 63T520 136L548 130Q543 102 527 69T483 13T418 -11Q344 -11 344 79Q344 123 362 213H359Q317 81 267 35T164 -11Q106
-11 72 31T37 163Q37 259 70 338T169 464T329 511Q397 511 463 494ZM240 475T200 434T141 325T121 180Q121 33 186 33Q230 33 274 102T347 272T376 463Q346 475 298 475Q240 475 200 434ZM223 616T211 631T198 668Q198 692 213 708T247 725Q265 725 277 711T289
675Q289 651 275 634T242 616Q223 616 211 631ZM370 616T358 631T345 668Q345 692 360 708T394 725Q412 725 424 711T436 675Q436 651 422 634T389 616Q370 616 358 631Z" />
<glyph unicode="&#xe5;" glyph-name="aring" horiz-adv-x="548" d="M397 511T463 494Q419 168 419 94Q419 68 424 54T447 39Q466 39 486 63T520 136L548 130Q543 102 527 69T483 13T418 -11Q344 -11 344 79Q344 123 362 213H359Q317 81 267 35T164 -11Q106 -11
72 31T37 163Q37 259 70 338T169 464T329 511Q397 511 463 494ZM240 475T200 434T141 325T121 180Q121 33 186 33Q230 33 274 102T347 272T376 463Q346 475 298 475Q240 475 200 434ZM274 570T247 592T219 659Q219 688 234 711T273 748T322 761Q361 761 388 739T416
673Q416 643 401 620T362 583T313 570Q274 570 247 592ZM336 598T350 617T365 666Q365 695 353 714T321 733Q300 733 285 713T270 664Q270 636 282 617T317 598Q336 598 350 617Z" />
<glyph unicode="&#xe6;" glyph-name="ae" horiz-adv-x="747" d="M633 511T660 475T687 403Q687 369 662 335T571 271T396 230Q396 39 521 39Q565 39 606 72T678 160L710 141Q668 59 614 24T502 -11Q443 -11 405 10T340 81Q298 35 251 12T154 -11Q91 -11 59 18T26
97Q26 153 70 191T182 248T321 264Q321 276 324 316Q326 342 326 354Q326 411 306 444T235 477Q197 477 169 459T132 412Q141 401 141 381Q141 366 130 354T100 342Q83 343 72 354T61 383Q61 413 86 442T155 491T255 511Q347 511 381 420H383Q443 511 554 511Q633
511 660 475ZM481 478T443 420T396 266Q485 274 546 309T607 405Q607 445 587 461T539 478Q481 478 443 420ZM229 229T169 203T109 109Q109 74 133 59T187 44Q223 44 260 63T327 114Q315 171 318 232Q229 229 169 203Z" />
<glyph unicode="&#xe7;" glyph-name="ccedilla" horiz-adv-x="474" d="M320 511T354 496T408 454T428 394Q428 371 416 358T384 345Q364 345 354 358T343 385Q343 409 356 423Q351 450 330 463T277 476Q198 476 163 402T127 231Q127 131 159 85T249 38Q293 38
334 67T402 164L437 147Q401 66 349 28T235 -11L212 -77Q242 -58 279 -58Q310 -58 327 -74T345 -117Q345 -174 285 -201T147 -240L143 -209Q199 -199 235 -180T271 -133Q271 -117 262 -110T237 -102Q213 -102 191 -117L157 -100L187 -7Q117 5 78 59T39 208Q39 278
65 348T146 464T278 511Q320 511 354 496Z" />
<glyph unicode="&#xe8;" glyph-name="egrave" horiz-adv-x="477" d="M342 511T382 483T422 396Q422 322 333 281T127 227Q127 133 155 86T241 39Q287 39 330 69T405 160L438 141Q396 62 344 26T224 -11Q132 -11 86 46T39 205Q39 286 66 355T149 468T282 511Q342
511 382 483ZM204 477T169 415T128 263Q215 275 277 311T339 401Q339 434 321 455T268 477Q204 477 169 415ZM213 686Q190 710 190 731Q190 745 200 755Q208 763 220 763Q243 763 262 731L340 599L316 579L213 686Z" />
<glyph unicode="&#xe9;" glyph-name="eacute" horiz-adv-x="477" d="M342 511T382 483T422 396Q422 322 333 281T127 227Q127 133 155 86T241 39Q287 39 330 69T405 160L438 141Q396 62 344 26T224 -11Q132 -11 86 46T39 205Q39 286 66 355T149 468T282 511Q342
511 382 483ZM204 477T169 415T128 263Q215 275 277 311T339 401Q339 434 321 455T268 477Q204 477 169 415ZM211 599L289 731Q308 763 331 763Q343 763 351 755Q361 745 361 731Q361 710 338 686L235 579L211 599Z" />
<glyph unicode="&#xea;" glyph-name="ecircumflex" horiz-adv-x="477" d="M342 511T382 483T422 396Q422 322 333 281T127 227Q127 133 155 86T241 39Q287 39 330 69T405 160L438 141Q396 62 344 26T224 -11Q132 -11 86 46T39 205Q39 286 66 355T149 468T282 511Q342
511 382 483ZM204 477T169 415T128 263Q215 275 277 311T339 401Q339 434 321 455T268 477Q204 477 169 415ZM291 702H289L153 593L131 619L299 776H301L441 615L416 589L291 702Z" />
<glyph unicode="&#xeb;" glyph-name="edieresis" horiz-adv-x="477" d="M342 511T382 483T422 396Q422 322 333 281T127 227Q127 133 155 86T241 39Q287 39 330 69T405 160L438 141Q396 62 344 26T224 -11Q132 -11 86 46T39 205Q39 286 66 355T149 468T282 511Q342
511 382 483ZM204 477T169 415T128 263Q215 275 277 311T339 401Q339 434 321 455T268 477Q204 477 169 415ZM191 616T179 631T166 668Q166 692 181 708T215 725Q233 725 245 711T257 675Q257 651 243 634T210 616Q191 616 179 631ZM338 616T326 631T313 668Q313
692 328 708T362 725Q380 725 392 711T404 675Q404 651 390 634T357 616Q338 616 326 631Z" />
<glyph unicode="&#xec;" glyph-name="igrave" horiz-adv-x="324" d="M174 511T195 483T217 407Q217 368 200 270Q190 207 185 165T179 81Q179 39 210 39Q229 39 249 63T283 136L311 130Q299 76 268 33T187 -11Q97 -11 97 83Q97 122 102 159T117 251Q127 312 131
345T136 416Q136 433 130 447T108 461Q89 461 69 437T35 364L7 370Q16 419 48 465T133 511Q174 511 195 483ZM111 686Q88 710 88 731Q88 745 98 755Q106 763 118 763Q141 763 160 731L238 599L214 579L111 686Z" />
<glyph unicode="&#xed;" glyph-name="iacute" horiz-adv-x="324" d="M174 511T195 483T217 407Q217 368 200 270Q190 207 185 165T179 81Q179 39 210 39Q229 39 249 63T283 136L311 130Q299 76 268 33T187 -11Q97 -11 97 83Q97 122 102 159T117 251Q127 312 131
345T136 416Q136 433 130 447T108 461Q89 461 69 437T35 364L7 370Q16 419 48 465T133 511Q174 511 195 483ZM109 599L187 731Q206 763 229 763Q241 763 249 755Q259 745 259 731Q259 710 236 686L133 579L109 599Z" />
<glyph unicode="&#xee;" glyph-name="icircumflex" horiz-adv-x="324" d="M297 615L271 589L161 702H159L33 593L11 619L169 776H171L297 615ZM174 511T195 483T217 407Q217 368 200 270Q190 207 185 165T179 81Q179 39 210 39Q229 39 249 63T283 136L311 130Q299
76 268 33T187 -11Q97 -11 97 83Q97 122 102 159T117 251Q127 312 131 345T136 416Q136 433 130 447T108 461Q89 461 69 437T35 364L7 370Q16 419 48 465T133 511Q174 511 195 483Z" />
<glyph unicode="&#xef;" glyph-name="idieresis" horiz-adv-x="324" d="M174 511T195 483T217 407Q217 368 200 270Q190 207 185 165T179 81Q179 39 210 39Q229 39 249 63T283 136L311 130Q299 76 268 33T187 -11Q97 -11 97 83Q97 122 102 159T117 251Q127 312
131 345T136 416Q136 433 130 447T108 461Q89 461 69 437T35 364L7 370Q16 419 48 465T133 511Q174 511 195 483ZM89 616T77 631T64 668Q64 692 79 708T113 725Q131 725 143 711T155 675Q155 651 141 634T108 616Q89 616 77 631ZM236 616T224 631T211 668Q211 692
226 708T260 725Q278 725 290 711T302 675Q302 651 288 634T255 616Q236 616 224 631Z" />
<glyph unicode="&#xf0;" glyph-name="eth" horiz-adv-x="516" d="M360 776L310 716Q385 667 421 571T457 348Q457 159 388 74T210 -11Q164 -11 125 14T63 89T40 209Q40 296 70 363T150 466T258 503Q332 503 372 454Q359 613 278 679L213 600L179 632L242 702Q188
726 119 725V758Q131 759 153 759Q219 759 273 736L331 802L360 776ZM232 463T200 434T147 350T126 220Q126 129 154 78T228 27Q281 27 314 79T362 206T376 352L375 393Q339 463 264 463Q232 463 200 434Z" />
<glyph unicode="&#xf1;" glyph-name="ntilde" horiz-adv-x="615" d="M452 511T478 475T505 381Q505 314 486 189Q475 110 475 85Q475 63 480 51T502 39Q521 39 541 62T575 136L603 129Q598 101 582 69T538 13T473 -11Q428 -11 410 12T392 85Q392 122 405 217Q423
339 423 403Q423 426 413 445T376 464Q332 464 286 398T210 234T179 53Q179 34 181 0H97Q96 9 96 26Q96 50 100 93T114 206Q114 212 116 226Q117 239 119 253T122 281Q129 342 132 370T135 416Q135 437 130 449T108 461Q89 461 69 437T35 364L7 370Q12 398 28 431T72
487T137 511Q212 511 212 408Q212 379 207 345T196 283H199Q247 411 294 461T396 511Q452 511 478 475ZM389 617T373 624T335 646Q319 658 306 664T278 670Q260 670 240 658T205 625L180 638Q194 673 227 697T289 721Q312 721 327 714T364 692Q381 680 392 675T416
669Q457 669 490 720L514 708Q496 662 468 640T411 617Q389 617 373 624Z" />
<glyph unicode="&#xf2;" glyph-name="ograve" horiz-adv-x="521" d="M340 511T383 485T451 410T476 292Q476 210 447 141T362 31T231 -11Q136 -11 88 51T39 213Q39 295 69 363T155 471T286 511Q340 511 383 485ZM226 474T194 443T144 357T127 235Q127 152 154
90T242 27Q293 27 325 66T373 162T388 273Q388 357 362 415T270 474Q226 474 194 443ZM229 686Q206 710 206 731Q206 745 216 755Q224 763 236 763Q259 763 278 731L356 599L332 579L229 686Z" />
<glyph unicode="&#xf3;" glyph-name="oacute" horiz-adv-x="521" d="M340 511T383 485T451 410T476 292Q476 210 447 141T362 31T231 -11Q136 -11 88 51T39 213Q39 295 69 363T155 471T286 511Q340 511 383 485ZM226 474T194 443T144 357T127 235Q127 152 154
90T242 27Q293 27 325 66T373 162T388 273Q388 357 362 415T270 474Q226 474 194 443ZM227 599L305 731Q324 763 347 763Q359 763 367 755Q377 745 377 731Q377 710 354 686L251 579L227 599Z" />
<glyph unicode="&#xf4;" glyph-name="ocircumflex" horiz-adv-x="521" d="M340 511T383 485T451 410T476 292Q476 210 447 141T362 31T231 -11Q136 -11 88 51T39 213Q39 295 69 363T155 471T286 511Q340 511 383 485ZM226 474T194 443T144 357T127 235Q127 152
154 90T242 27Q293 27 325 66T373 162T388 273Q388 357 362 415T270 474Q226 474 194 443ZM307 702H305L169 593L147 619L315 776H317L457 615L432 589L307 702Z" />
<glyph unicode="&#xf5;" glyph-name="otilde" horiz-adv-x="521" d="M340 511T383 485T451 410T476 292Q476 210 447 141T362 31T231 -11Q136 -11 88 51T39 213Q39 295 69 363T155 471T286 511Q340 511 383 485ZM226 474T194 443T144 357T127 235Q127 152 154
90T242 27Q293 27 325 66T373 162T388 273Q388 357 362 415T270 474Q226 474 194 443ZM343 617T327 624T289 646Q273 658 260 664T232 670Q214 670 194 658T159 625L134 638Q148 673 181 697T243 721Q266 721 281 714T318 692Q335 680 346 675T370 669Q411 669
444 720L468 708Q450 662 422 640T365 617Q343 617 327 624Z" />
<glyph unicode="&#xf6;" glyph-name="odieresis" horiz-adv-x="521" d="M340 511T383 485T451 410T476 292Q476 210 447 141T362 31T231 -11Q136 -11 88 51T39 213Q39 295 69 363T155 471T286 511Q340 511 383 485ZM226 474T194 443T144 357T127 235Q127 152 154
90T242 27Q293 27 325 66T373 162T388 273Q388 357 362 415T270 474Q226 474 194 443ZM207 616T195 631T182 668Q182 692 197 708T231 725Q249 725 261 711T273 675Q273 651 259 634T226 616Q207 616 195 631ZM354 616T342 631T329 668Q329 692 344 708T378 725Q396
725 408 711T420 675Q420 651 406 634T373 616Q354 616 342 631Z" />
<glyph unicode="&#xf7;" glyph-name="divide" horiz-adv-x="269" d="M156 170T170 153T185 111Q185 83 167 64T125 44Q102 44 87 61T71 105Q71 132 90 151T133 170Q156 170 170 153ZM166 516T180 499T195 457Q195 429 177 410T135 390Q112 390 97 407T81 451Q81
478 100 497T143 516Q166 516 180 499Z" />
<glyph unicode="&#xf8;" glyph-name="oslash" horiz-adv-x="521" d="M489 533L429 446Q476 386 476 292Q476 210 447 141T362 31T231 -11Q172 -11 129 15L66 -77L34 -52L97 41Q68 71 54 115T39 213Q39 295 69 363T155 471T286 511Q346 511 393 479L448 562L489
533ZM224 474T192 442T144 356T127 234Q127 160 145 112L355 424Q326 474 268 474Q224 474 192 442ZM167 68Q194 27 242 27Q293 27 326 66T373 162T388 274Q388 328 377 372L167 68Z" />
<glyph unicode="&#xf9;" glyph-name="ugrave" horiz-adv-x="593" d="M173 511T193 486T214 414Q214 378 198 264Q197 255 189 197T181 99Q181 75 191 56T228 36Q272 36 316 102T388 266T417 447Q417 466 415 500H499Q500 491 500 474Q500 450 495 400T480 270L470
187Q469 174 465 139T461 84Q461 40 488 40Q507 40 527 63T561 136L589 130Q584 102 568 69T524 13T459 -11Q420 -11 401 13T382 79Q382 123 400 213H397Q349 84 305 37T208 -11Q152 -11 126 25T99 119Q99 162 104 206T119 312Q121 323 126 358T131 414Q131 437
126 449T104 461Q86 461 67 438T34 364L6 370Q15 419 47 465T133 511Q173 511 193 486ZM246 686Q223 710 223 731Q223 745 233 755Q241 763 253 763Q276 763 295 731L373 599L349 579L246 686Z" />
<glyph unicode="&#xfa;" glyph-name="uacute" horiz-adv-x="593" d="M173 511T193 486T214 414Q214 378 198 264Q197 255 189 197T181 99Q181 75 191 56T228 36Q272 36 316 102T388 266T417 447Q417 466 415 500H499Q500 491 500 474Q500 450 495 400T480 270L470
187Q469 174 465 139T461 84Q461 40 488 40Q507 40 527 63T561 136L589 130Q584 102 568 69T524 13T459 -11Q420 -11 401 13T382 79Q382 123 400 213H397Q349 84 305 37T208 -11Q152 -11 126 25T99 119Q99 162 104 206T119 312Q121 323 126 358T131 414Q131 437
126 449T104 461Q86 461 67 438T34 364L6 370Q15 419 47 465T133 511Q173 511 193 486ZM244 599L322 731Q341 763 364 763Q376 763 384 755Q394 745 394 731Q394 710 371 686L268 579L244 599Z" />
<glyph unicode="&#xfb;" glyph-name="ucircumflex" horiz-adv-x="593" d="M173 511T193 486T214 414Q214 378 198 264Q197 255 189 197T181 99Q181 75 191 56T228 36Q272 36 316 102T388 266T417 447Q417 466 415 500H499Q500 491 500 474Q500 450 495 400T480
270L470 187Q469 174 465 139T461 84Q461 40 488 40Q507 40 527 63T561 136L589 130Q584 102 568 69T524 13T459 -11Q420 -11 401 13T382 79Q382 123 400 213H397Q349 84 305 37T208 -11Q152 -11 126 25T99 119Q99 162 104 206T119 312Q121 323 126 358T131 414Q131
437 126 449T104 461Q86 461 67 438T34 364L6 370Q15 419 47 465T133 511Q173 511 193 486ZM324 702H322L186 593L164 619L332 776H334L474 615L449 589L324 702Z" />
<glyph unicode="&#xfc;" glyph-name="udieresis" horiz-adv-x="593" d="M173 511T193 486T214 414Q214 378 198 264Q197 255 189 197T181 99Q181 75 191 56T228 36Q272 36 316 102T388 266T417 447Q417 466 415 500H499Q500 491 500 474Q500 450 495 400T480 270L470
187Q469 174 465 139T461 84Q461 40 488 40Q507 40 527 63T561 136L589 130Q584 102 568 69T524 13T459 -11Q420 -11 401 13T382 79Q382 123 400 213H397Q349 84 305 37T208 -11Q152 -11 126 25T99 119Q99 162 104 206T119 312Q121 323 126 358T131 414Q131 437
126 449T104 461Q86 461 67 438T34 364L6 370Q15 419 47 465T133 511Q173 511 193 486ZM224 616T212 631T199 668Q199 692 214 708T248 725Q266 725 278 711T290 675Q290 651 276 634T243 616Q224 616 212 631ZM371 616T359 631T346 668Q346 692 361 708T395 725Q413
725 425 711T437 675Q437 651 423 634T390 616Q371 616 359 631Z" />
<glyph unicode="&#xfd;" glyph-name="yacute" horiz-adv-x="514" d="M428 511T447 474T466 383Q466 292 430 193T333 -17Q261 -149 196 -210T69 -271Q33 -271 11 -253T-12 -208Q-12 -187 1 -175T29 -162Q50 -162 61 -175T72 -214Q86 -221 94 -221Q132 -223 175
-173T247 -75Q229 48 197 173T125 395Q113 421 104 433T79 446Q62 446 52 425T41 368Q41 351 42 342L10 338Q9 348 9 368Q9 427 30 469T101 511Q146 511 171 480T214 398Q234 344 250 282T288 121Q294 92 303 19H305Q353 103 386 195T419 363Q419 387 415 406T404
434Q395 428 379 428Q361 428 350 439T339 467Q339 488 353 499T386 511Q428 511 447 474ZM191 599L269 731Q288 763 311 763Q323 763 331 755Q341 745 341 731Q341 710 318 686L215 579L191 599Z" />
<glyph unicode="&#xfe;" glyph-name="thorn" horiz-adv-x="512" d="M182 670T173 586L159 439Q154 398 151 363T145 299L148 298Q183 427 232 469T341 511Q406 511 436 459T466 326Q466 177 398 83T189 -11Q160 -11 129 -7L123 -134Q122 -141 122 -156Q120 -195
115 -217L178 -214V-255H-11V-225Q15 -225 27 -208T43 -167T50 -86Q79 340 101 619Q105 673 108 692L36 688L40 728Q100 728 126 735T167 755H196Q182 670 173 586ZM269 464T227 397T158 231T129 47Q140 36 162 30T206 24Q302 25 341 109T380 307Q380 464 314 464Q269
464 227 397Z" />
<glyph unicode="&#xff;" glyph-name="ydieresis" horiz-adv-x="514" d="M428 511T447 474T466 383Q466 292 430 193T333 -17Q261 -149 196 -210T69 -271Q33 -271 11 -253T-12 -208Q-12 -187 1 -175T29 -162Q50 -162 61 -175T72 -214Q86 -221 94 -221Q132 -223
175 -173T247 -75Q229 48 197 173T125 395Q113 421 104 433T79 446Q62 446 52 425T41 368Q41 351 42 342L10 338Q9 348 9 368Q9 427 30 469T101 511Q146 511 171 480T214 398Q234 344 250 282T288 121Q294 92 303 19H305Q353 103 386 195T419 363Q419 387 415 406T404
434Q395 428 379 428Q361 428 350 439T339 467Q339 488 353 499T386 511Q428 511 447 474ZM171 616T159 631T146 668Q146 692 161 708T195 725Q213 725 225 711T237 675Q237 651 223 634T190 616Q171 616 159 631ZM318 616T306 631T293 668Q293 692 308 708T342
725Q360 725 372 711T384 675Q384 651 370 634T337 616Q318 616 306 631Z" />
<glyph unicode="&#x2013;" glyph-name="endash" horiz-adv-x="583" d="M518 291L63 287L66 353H521L518 291Z" />
<glyph unicode="&#x2014;" glyph-name="emdash" horiz-adv-x="770" d="M705 291L63 287L66 353H708L705 291Z" />
<glyph unicode="&#x2018;" glyph-name="quoteleft" horiz-adv-x="211" d="M101 480T84 502T66 558Q66 600 87 657T148 757L173 737Q153 713 135 670T117 586V578H119Q130 582 142 582Q160 582 173 568T186 536Q186 510 170 495T130 480Q101 480 84 502Z" />
<glyph unicode="&#x2019;" glyph-name="quoteright" horiz-adv-x="196" d="M146 760T163 738T181 682Q181 640 160 583T99 483L74 503Q94 527 112 570T130 654V662H128Q117 658 105 658Q87 658 74 672T61 704Q61 730 77 745T117 760Q146 760 163 738Z" />
<glyph unicode="&#x201a;" glyph-name="quotesinglbase" horiz-adv-x="237" d="M128 98T145 76T163 20Q163 -22 142 -79T81 -179L56 -159Q76 -135 94 -92T112 -8V0H110Q99 -4 87 -4Q69 -4 56 10T43 42Q43 68 59 83T99 98Q128 98 145 76Z" />
<glyph unicode="&#x201c;" glyph-name="quotedblleft" horiz-adv-x="388" d="M101 480T84 502T66 558Q66 600 87 657T148 757L173 737Q153 713 135 670T117 586V578H119Q130 582 142 582Q160 582 173 568T186 536Q186 510 170 495T130 480Q101 480 84 502ZM277
480T260 502T242 558Q242 600 263 657T324 757L349 737Q329 713 311 670T293 586V578H295Q306 582 318 582Q336 582 349 568T362 536Q362 510 346 495T306 480Q277 480 260 502Z" />
<glyph unicode="&#x201d;" glyph-name="quotedblright" horiz-adv-x="372" d="M146 760T163 738T181 682Q181 640 160 583T99 483L74 503Q94 527 112 570T130 654V662H128Q117 658 105 658Q87 658 74 672T61 704Q61 730 77 745T117 760Q146 760 163 738ZM322 760T339
738T357 682Q357 640 336 583T275 483L250 503Q270 527 288 570T306 654V662H304Q293 658 281 658Q263 658 250 672T237 704Q237 730 253 745T293 760Q322 760 339 738Z" />
<glyph unicode="&#x201e;" glyph-name="quotedblbase" horiz-adv-x="413" d="M128 98T145 76T163 20Q163 -22 142 -79T81 -179L56 -159Q76 -135 94 -92T112 -8V0H110Q99 -4 87 -4Q69 -4 56 10T43 42Q43 68 59 83T99 98Q128 98 145 76ZM304 98T321 76T339 20Q339
-22 318 -79T257 -179L232 -159Q252 -135 270 -92T288 -8V0H286Q275 -4 263 -4Q245 -4 232 10T219 42Q219 68 235 83T275 98Q304 98 321 76Z" />
<glyph unicode="&#x2022;" glyph-name="bullet" horiz-adv-x="389" d="M246 522T279 504T331 453T350 381Q350 339 328 304T270 247T191 226Q152 226 120 244T68 294T49 365Q49 408 70 444T127 501T206 522Q246 522 279 504Z" />
<glyph unicode="&#x2039;" glyph-name="guilsinglleft" horiz-adv-x="369" d="M343 522L124 264V262L306 19L277 -7L25 264V268L319 549L343 522Z" />
<glyph unicode="&#x203a;" glyph-name="guilsinglright" horiz-adv-x="369" d="M21 20L240 278V280L58 523L87 549L339 278V274L45 -7L21 20Z" />
</font>
</defs>
</svg>
